<?xml version="1.0" standalone="no"?>
<!DOCTYPE svg PUBLIC "-//W3C//DTD SVG 1.1//EN" "http://www.w3.org/Graphics/SVG/1.1/DTD/svg11.dtd" >
<svg xmlns="http://www.w3.org/2000/svg">
<metadata>
<json>
<![CDATA[
{
	"fontFamily": "cs-icon-font-cb",
	"majorVersion": 1,
	"minorVersion": 0,
	"version": "Version 1.0",
	"fontId": "cs-icon-font-cb",
	"psName": "cs-icon-font-cb",
	"subFamily": "Regular",
	"fullName": "cs-icon-font-cb",
	"description": "Font generated by IcoMoon."
}
]]>
</json>
</metadata>
<defs>
<font id="cs-icon-font-cb" horiz-adv-x="1024">
<font-face units-per-em="1024" ascent="960" descent="-64" />
<missing-glyph horiz-adv-x="1024" />
<glyph unicode="&#x20;" horiz-adv-x="0" d="" />
<glyph unicode="&#x21;" glyph-name="cs-filter" data-tags="cs-filter" d="M808 710c-42 0-76 34-76 78 0 42 34 76 76 76s76-34 76-76c0-44-34-78-76-78zM970 832c-18 72-84 124-162 124s-144-52-162-124h-646v-90h646c18-70 84-124 162-124s144 54 162 124h54v90zM216 372c-42 0-78 36-78 78s36 76 78 76c42 0 76-34 76-76s-34-78-76-78zM378 492c-18 74-84 126-162 126s-144-52-164-126h-52v-88h54c20-72 84-124 162-124 76 0 142 52 162 124h646v88zM644 32c-42 0-78 34-78 76 0 44 36 78 78 78s76-34 76-78c0-42-34-76-76-76zM806 154c-20 70-84 124-162 124s-144-54-164-124h-480v-90h480c20-72 86-124 164-124s142 52 162 124h218v90z" />
<glyph unicode="&#x22;" glyph-name="cs-flag" data-tags="cs-flag" d="M716 908h104v-562h-718v-410h-102v972zM102 448h614v358h-614z" />
<glyph unicode="&#x23;" glyph-name="cs-portfolio" data-tags="cs-portfolio" d="M154 908h716v-154h52v-152h102v-102l-102-504v-8h-820v10l-102 502v102h102v152h52zM256 754h512v52h-512zM204 602h616v50h-616zM106 500l82-410h648l84 410z" />
<glyph unicode="&#x24;" glyph-name="cs-flyout-menu-arrow-right" data-tags="cs-flyout-menu-arrow-right" d="M308 194l72-72 342 342-342 342-72-72 270-270-270-270" />
<glyph unicode="&#x25;" glyph-name="cs-loudspeaker" data-tags="cs-loudspeaker" d="M110 290h322l56-42v400l-88-64h-290zM588 50l-190 140h-388v494h356l222 162zM764 224l-92 38c78 190 2 342 2 344l90 46c4-8 96-198 0-428zM932 86l-90 44c160 330 8 596 2 608l86 52c8-14 186-322 2-704z" />
<glyph unicode="&#x26;" glyph-name="cs-follow" data-tags="cs-follow" d="M768 90h-154v102h154v154h102v-154h154v-102h-154v-154h-102zM308 730c0 70 56 128 128 128 70 0 128-58 128-128 0-72-58-128-128-128-72 0-128 56-128 128zM512 524c8 0 16 0 24 0 76 38 130 114 130 206 0 126-104 230-230 230-128 0-232-104-232-230 0-92 54-168 130-206 8 0 16 0 24 0zM562 498c-8 0-16 2-24 2h-154c-8 0-16-2-24-2-202-12-360-178-360-382v-180h102v180c0 154 126 280 282 280h154c54 0 102-14 146-40l62 80c-54 36-116 58-184 62" />
<glyph unicode="&#x27;" glyph-name="cs-global" data-tags="cs-global" d="M862 216c-22 22-56 40-98 54 8 42 14 86 16 130h148c-8-66-30-130-66-184zM680 60c24 34 44 78 62 126 34-12 56-26 66-38-38-38-80-68-128-88zM552 304v96h142c-2-38-8-74-16-108-36 6-80 10-126 12zM552 54v162c38-2 74-4 104-10-26-76-64-130-104-152zM552 560c48 2 94 8 134 20 4-30 6-60 8-92h-142zM552 852c44-26 88-94 116-188-34-8-72-14-116-16zM808 740c-8-14-28-32-58-46-16 48-34 92-56 128 42-20 82-48 114-82zM928 488h-148c0 42-4 80-10 118 40 18 72 40 94 66 34-54 56-116 64-184zM464 648c-42 4-80 10-112 20 26 92 68 158 112 184zM464 488h-140c0 34 4 64 8 94 40-10 86-18 132-20zM464 302c-42 0-86-6-126-14-8 36-12 72-14 112h140zM464 54c-38 22-76 76-102 150 30 6 64 10 102 12zM214 142c10 12 30 26 64 40 16-48 36-88 60-122-46 20-88 48-124 82zM90 400h146c4-46 8-92 18-134-40-16-72-34-96-58-36 56-62 122-68 192zM158 678c22-26 52-48 90-66-6-38-10-80-12-124h-146c6 70 30 134 68 190zM322 822c-20-34-38-76-52-122-28 16-48 32-56 46 32 30 68 56 108 76zM522 952c-4 0-8 0-14 0-4 0-10 0-14 0-274-6-494-232-494-508 0-280 228-508 508-508s508 228 508 508c0 276-220 502-494 508z" />
<glyph unicode="&#x28;" glyph-name="cs-graph" data-tags="cs-graph" d="M410 960h306v-614h206v-410h-922v512h204v154h206zM512 602v-564h102v820h-102zM308 38h102v462h-102zM102 38h102v308h-102zM716 38h104v206h-104z" />
<glyph unicode="&#x29;" glyph-name="chevron-l" data-tags="chevron-l" d="M722 734l-72 72-342-342 342-342 72 72-270 270 270 270" />
<glyph unicode="&#x2a;" glyph-name="cs-home" data-tags="cs-home" d="M564 42h102v104h-102zM564 248h102v102h-102zM358 248h102v102h-102zM102 420l-30-30-72 74 512 496 508-522-74-72-24 26v-452h-102v558l-308 318-308-298v-578h-102z" />
<glyph unicode="&#x2b;" glyph-name="cs-in-progress-large" data-tags="cs-in-progress-large" d="M136 416c0-28-22-48-48-48-28 0-50 20-50 48 0 26 22 48 50 48 26 0 48-22 48-48zM264 150c0-38-30-68-68-68-36 0-66 30-66 68 0 36 30 66 66 66 38 0 68-30 68-66zM560 20c0-44-36-78-78-78-44 0-80 34-80 78 0 42 36 78 80 78 42 0 78-36 78-78zM852 132c0-54-44-98-98-98s-98 44-98 98c0 54 44 98 98 98s98-44 98-98zM986 402c0-58-48-104-106-104s-104 46-104 104c0 58 46 104 104 104s106-46 106-104zM896 682c0-62-50-112-112-112s-112 50-112 112c0 62 50 112 112 112s112-50 112-112zM618 820c0-74-60-134-134-134s-134 60-134 134c0 74 60 134 134 134s134-60 134-134z" />
<glyph unicode="&#x2c;" glyph-name="cs-in-progress-small" data-tags="cs-in-progress-small" d="M496 800c-44 0-80-36-80-80s36-80 80-80c44 0 80 36 80 80s-36 80-80 80M496 192c-26 0-48-22-48-48s22-48 48-48c26 0 48 22 48 48s-22 48-48 48M784 496c-36 0-64-28-64-64s28-64 64-64c36 0 64 28 64 64s-28 64-64 64M208 464c-20 0-32-12-32-32s12-32 32-32c20 0 32 12 32 32s-12 32-32 32M752 586c28 28 28 74 0 102s-74 28-102 0c-30-28-30-74 0-102 28-30 74-30 102 0M266 256c-16-16-16-42 0-58s42-16 58 0c16 16 16 42 0 58-20 16-46 16-58 0M660 268c-24-22-24-56 0-80 22-22 56-22 80 0 22 24 22 58 0 80-24 24-58 24-80 0" />
<glyph unicode="&#x2d;" glyph-name="cs-information-circle" data-tags="cs-information-circle" d="M460 192h104v308h-104zM460 602h104v102h-104zM1024 448c0-282-230-512-512-512s-512 230-512 512c0 282 230 512 512 512s512-230 512-512zM922 448c0 226-184 410-410 410s-410-184-410-410c0-226 184-410 410-410s410 184 410 410z" />
<glyph unicode="&#x2e;" glyph-name="cs-intraday" data-tags="cs-intraday" d="M644 826h-512l16-96h64l-8 32h440M676 698h-608l16-96h64l-8 32h536M964 570h-960l86-522c0-4 0-6 2-10 8-18 20-34 40-42 6-2 16-2 22-2h722c8 0 16 0 24 2 18 8 32 24 38 42 0 4 2 6 2 10l88 522zM876 58h-722l-74 448h874zM868 960c-90 0-160-70-160-160s70-160 160-160c88 0 160 70 160 160s-74 160-160 160zM918 704l-80 80v108h36v-96l66-66z" />
<glyph unicode="&#x2f;" glyph-name="cs-location" data-tags="cs-location" d="M522-68l-20 16c-16 14-370 318-370 612 0 214 176 390 390 390s390-176 390-390c0-298-356-598-372-612zM522 890c-180 0-326-148-326-326 0-228 252-478 326-544 74 66 326 316 326 544 0 178-144 326-326 326zM522 378c-110 0-202 90-202 202 0 108 90 200 202 200s202-88 202-200c0-112-90-202-202-202zM522 714c-74 0-138-62-138-138 0-74 60-138 138-138 74 0 138 62 138 138s-62 138-138 138z" />
<glyph unicode="&#x30;" glyph-name="cs-sort-down" data-tags="cs-sort-down" d="M226 652l-72-72 342-342 342 342-72 72-270-270-270 270" />
<glyph unicode="&#x31;" glyph-name="cs-dropdown-arrow-up" data-tags="cs-dropdown-arrow-up" d="M766 238l72 72-342 342-342-342 72-72 270 270 270-270" />
<glyph unicode="&#x32;" glyph-name="cs-edit" data-tags="cs-edit" d="M102 170l2 234 554 556 236-236-562-554zM658 816l-452-454v-92h90l454 454zM102-34h718v102h-718z" />
<glyph unicode="&#x33;" glyph-name="cs-chat" data-tags="cs-chat" d="M204 960h820v-616h-154v102h58l-6 412h-614v-52h-104zM256 184l60 60h452v460h-666v-460h154zM0 806h870v-666h-512l-204-204v204h-154zM204 602h462v-102h-462zM204 448h462v-102h-462z" />
<glyph unicode="&#x34;" glyph-name="cs-edit-element" data-tags="cs-edit-element" d="M614 858c0-56-46-102-102-102s-102 46-102 102c0 56 46 102 102 102s102-46 102-102zM614 448c0-56-46-102-102-102s-102 46-102 102c0 56 46 102 102 102s102-46 102-102zM614 38c0-56-46-102-102-102s-102 46-102 102c0 56 46 102 102 102s102-46 102-102z" />
<glyph unicode="&#x35;" glyph-name="cs-espresso-cup" data-tags="cs-espresso-cup" d="M812 752h-752l144-608h436l68 288h104c84 0 152 68 152 150v16c0 86-68 154-152 154zM586 208h-334l-112 480h560zM900 582c0-48-40-86-88-86h-92l44 192h48c48 0 88-38 88-86z" />
<glyph unicode="&#x36;" glyph-name="cs-expand" data-tags="cs-expand" d="M800 960v-64h116l-298-298 44-44 298 298v-116h64v224zM362 342l-298-298v116h-64v-224h224v64h-116l298 298zM224 896v64h-224v-224h64v116l298-298 44 44-298 298zM960 44l-298 298-44-44 298-298h-116v-64h224v224h-64z" />
<glyph unicode="&#x37;" glyph-name="cs-extended-navigation" data-tags="cs-extended-navigation" d="M102 550c56 0 102-46 102-102s-46-102-102-102c-56 0-102 46-102 102s46 102 102 102zM512 550c56 0 102-46 102-102s-46-102-102-102c-56 0-102 46-102 102s46 102 102 102zM922 550c56 0 102-46 102-102s-46-102-102-102c-56 0-102 46-102 102s46 102 102 102z" />
<glyph unicode="&#x38;" glyph-name="cs-faq" data-tags="cs-faq" d="M512 856c-224 0-408-184-408-408s184-408 408-408c224 0 408 184 408 408s-184 408-408 408M512-62c-282 0-510 228-510 510s228 510 510 510c282 0 510-228 510-510s-228-510-510-510M502 730c32 0 64-6 92-20 26-14 50-32 66-56 16-26 24-54 24-88 0-24-4-46-12-62-8-18-18-34-32-46-12-12-30-26-56-44-14-10-24-22-30-32-6-12-8-26-8-44v-28h-86v44c0 32 2 56 8 74 8 18 22 34 42 46 22 14 38 28 50 40s18 28 18 48c0 22-8 42-24 56-14 14-34 20-58 20-30 0-52-8-68-28-14-20-22-44-22-76l-94 14c2 56 20 100 54 132 34 34 80 50 136 50zM450 168v106h104v-106z" />
<glyph unicode="&#x39;" glyph-name="cs-feedback" data-tags="cs-feedback" d="M940 448h-44v64h44c10 0 20 10 20 20v342c0 12-10 22-20 22h-640c-12 0-22-10-22-22v-74h-64v74c0 48 38 86 86 86h640c46 0 84-38 84-86v-342c0-46-38-84-84-84zM192-60v188h-102c-26 0-48 10-64 26s-26 38-26 60v464c0 48 38 90 90 90h684c52 0 90-48 90-90v-464c0-48-38-90-90-90h-252zM256 192v-144l246 140h272c14 0 26 10 26 26v464c0 10-12 26-26 26l-684-4c-14 0-26-8-26-22v-460c0-6 4-14 6-16 6-6 10-10 20-10zM192 544h474v-64h-474zM192 416h474v-64h-474z" />
<glyph unicode="&#x3a;" glyph-name="cs-location-alert" data-tags="cs-location-alert" d="M522-68l-20 16c-16 14-370 318-370 612 0 214 176 390 390 390s390-176 390-390c0-298-356-598-372-612zM522 890c-180 0-326-148-326-326 0-228 252-478 326-544 74 66 326 316 326 544 0 178-144 326-326 326zM480 704h64v-256h-64zM480 384h64v-64h-64z" />
<glyph unicode="&#x3b;" glyph-name="cs-mail" data-tags="cs-mail" d="M0 90h1024v716h-1024zM208 704h608l-304-246zM100 664l412-310 412 310v-472h-824z" />
<glyph unicode="&#x3c;" glyph-name="cs-market" data-tags="cs-market" d="M228 478l-128-504-98 26 180 716 248-344 174 260 148-156 128 456 100-28-178-628-184 192-186-276z" />
<glyph unicode="&#x3d;" glyph-name="cs-comment" data-tags="cs-comment" d="M104 354h544l136-130v130h136v458h-816zM884-18l-278 270h-604v662h1020v-662h-138zM192 630h638v102h-638zM192 440h638v102h-638z" />
<glyph unicode="&#x3e;" glyph-name="cs-message-history" data-tags="cs-message-history" d="M182 628h180v-62h-180zM182 448h330v-60h-330zM752 928c-132 0-240-108-240-240s108-240 240-240c132 0 240 108 240 240s-108 240-240 240M752 508c-100 0-180 80-180 180s80 180 180 180c100 0 180-80 180-180s-80-180-180-180M812 268h-300l-240-182v182h-180v480h366c2 24 10 42 18 62h-384c-34-4-60-30-60-62v-480c0-32 26-60 60-60h122v-240l330 240h268c32 0 62 26 62 60v144c-20-8-38-16-62-18zM780 806h-56v-156l108-52 26 54-78 36z" />
<glyph unicode="&#x3f;" glyph-name="cs-mission-control" data-tags="cs-mission-control" d="M960 704h-180v192c0 36-28 64-64 64h-408c-36 0-64-28-64-64v-192h-180c-36 0-64-28-64-64v-448c0-36 28-64 64-64h180v-128c0-36 28-64 64-64h406c34 0 64 28 64 64v128h182c36 0 64 28 64 64v448c0 36-28 64-64 64zM64 192v384h180v-384zM716 0h-406v764h406zM960 192h-180v384h180z" />
<glyph unicode="&#x40;" glyph-name="cs-monitoring" data-tags="cs-monitoring" d="M864 608l-44-44 82-84h-266c-12 54-64 96-120 96-62 0-110-42-126-96h-138c-12 54-64 96-124 96-70 0-128-58-128-128s58-128 128-128c58 0 108 42 122 92h138c16-54 64-92 120-92 58 0 110 42 122 96h262l-80-80 52-48 156 160zM128 384c-36 0-64 28-64 64s28 64 64 64c36 0 64-28 64-64s-28-64-64-64zM512 384c-36 0-64 28-64 64s28 64 64 64c36 0 64-28 64-64s-28-64-64-64z" />
<glyph unicode="&#x41;" glyph-name="cs-coffe-cup" data-tags="cs-coffe-cup" d="M832 490v96h-832v-394c0-140 112-246 252-246h324c122 0 224 80 250 192h6c108 0 192 76 192 182 0 100-80 170-192 170zM64 522h704v-330c0-6 0-16 0-22h-704c0 6 0 12 0 22zM576 10h-324c-72 0-136 38-168 96h662c-32-58-96-96-170-96zM832 202v224c76 0 128-42 128-110 0-64-54-114-128-114zM224 906h64v-256h-64zM384 970h64v-256h-64zM512 874h64v-192h-64z" />
<glyph unicode="&#x42;" glyph-name="cs-collaboration" data-tags="cs-collaboration" d="M1008 244v-296h-90v296c0 116-94 212-210 212s-212-96-212-212v-296h-88v296c0 28 2 54 10 80-28 40-72 60-134 60-98 0-178-80-178-178v-258h-90v258c0 146 120 266 268 266 70 0 130-20 174-60 54 80 146 132 250 132 164 0 300-134 300-300M708 858c-58 0-104-46-104-104s46-104 104-104c58 0 104 46 104 104s-46 104-104 104M708 560c-108 0-194 88-194 194s86 194 194 194c106 0 192-88 192-194s-86-194-192-194M284 748c-48 0-86-38-86-84 0-48 38-86 86-86 46 0 84 38 84 86 0 46-38 84-84 84M284 490c-96 0-174 78-174 174s78 174 174 174c96 0 174-78 174-174s-78-174-174-174" />
<glyph unicode="&#x43;" glyph-name="cs-collapse" data-tags="cs-collapse" d="M192 288h116l-298-298 44-44 298 298v-116h64v224h-224zM832 608h-116l298 298-44 44-298-298v116h-64v-224h224zM352 652l-298 298-44-44 298-298h-116v-64h224v224h-64zM832 288v64h-224v-224h64v116l298-298 44 44-298 298z" />
<glyph unicode="&#x44;" glyph-name="cs-calendar-for-numbers" data-tags="cs-calendar-for-numbers" d="M768 858h204v-922h-920v922h204v102h102v-102h308v102h102zM256 756h-102v-718h716v718h-102v-104h-102v104h-308v-104h-102z" />
<glyph unicode="&#x45;" glyph-name="cs-company" data-tags="cs-company" d="M276 768h338v-64h-338zM276 618h338v-64h-338zM276 470h338v-64h-338zM276 320h338v-64h-338zM726 436v488h-560v-924h-166v-64h378v212h144v-212h502v592zM662 0h-76v212h-272v-212h-84v860h432zM960 0h-234v368l234 74z" />
<glyph unicode="&#x46;" glyph-name="cs-corporate-prospects" data-tags="cs-corporate-prospects" d="M864 852h-32v-62h32c10 0 20 4 26 10 2 4 6 10 6 20 0 12-4 18-10 24-2 4-12 8-22 8zM854 964c-92 0-170-78-170-170 0-94 78-170 170-170 94 0 170 74 170 166 0 94-76 174-170 174zM924 790c-6-10-12-16-22-18-10-4-18-8-32-8h-42v-60h-34v176h74c22 0 34-6 48-16 8-10 16-26 16-42 2-12 0-22-8-32zM276 768h338v-64h-338zM276 618h338v-64h-338zM276 470h338v-64h-338zM276 320h338v-64h-338zM726 436v136l-64 52v-624h-76v212h-272v-212h-84v860h390l40 64h-494v-924h-166v-64h378v212h144v-212h502v592zM960 0h-234v368l234 74z" />
<glyph unicode="&#x47;" glyph-name="cs-document" data-tags="cs-document" d="M0 960v-1024h820v716l-308 308zM102 858h308v-358h306v-462h-614zM512 786l186-184h-186z" />
<glyph unicode="&#x48;" glyph-name="cs-documents-add-sticky-note" data-tags="cs-documents-add-sticky-note" d="M1012 166c0 0-84 100-122 202-20 52-36 108-52 208h-64c20-86 38-166 62-224 34-90 112-198 128-224 0 0-52 0-128 0h-64v-4c-216 0-528 4-528 4-30 0-52 28-90 176-38 140-64 368-68 394-2 2-2 6 0 6h554v64h-480c0 0-36 0-80 0-4 0-10 0-16 0-38 0-64-32-64-64v-666c0-54 42-102 84-102h672c56 0 72 48 72 106v22h112c42 0 80 54 80 84zM768 42c0-10-4-42-42-42h-604c-30 0-58 16-58 42v354c6-38 16-76 26-108 42-150 74-224 154-224h524zM854 960c-92 0-170-76-170-170 0-92 78-170 170-170 94 0 170 74 170 170s-76 170-170 170zM960 772h-86v-88h-36v88h-86v34h86v86h36v-86h86z" />
<glyph unicode="&#x49;" glyph-name="cs-documents-call-report" data-tags="cs-documents-call-report" d="M102 38v820h308v-358h306v-462zM512 786l186-184h-186zM512 960h-512v-1024h820v716zM204 140v104h410v-104zM204 294v102h410v-102zM204 448v102h154v-102z" />
<glyph unicode="&#x4a;" glyph-name="cs-documents-client-review" data-tags="cs-documents-client-review" d="M692 924h-532c-36 0-64-28-64-64v-860c0-36 28-64 64-64h694c36 0 64 28 64 64v678zM692 828l146-156h-150v156zM160 0v860h468v-208c0-24 18-44 44-44h182v-608zM396 480h352v-64h-352zM396 352h352v-64h-352zM396 224h352v-64h-352zM300 480h64v-64h-64zM300 352h64v-64h-64zM300 224h64v-64h-64z" />
<glyph unicode="&#x4b;" glyph-name="cs-documents-dcdo" data-tags="cs-documents-dcdo" d="M692 924h-532c-36 0-64-28-64-64v-860c0-36 28-64 64-64h694c36 0 64 28 64 64v678zM692 828l146-156h-150v156zM160 0v860h468v-208c0-24 18-44 44-44h182v-608zM298 224h352v-64h-352zM298 352h352v-64h-352zM298 480h352v-64h-352zM682 224h64v-64h-64zM682 352h64v-64h-64zM682 480h64v-64h-64z" />
<glyph unicode="&#x4c;" glyph-name="cs-documents-new-call-report" data-tags="cs-documents-new-call-report" d="M160 384h512v-64h-512zM160 256h256v-64h-256zM160 512h512v-64h-512zM854 964c-92 0-170-78-170-170 0-94 78-170 170-170 94 0 170 74 170 170s-76 170-170 170zM960 774h-86v-86h-36v86h-86v36h86v86h36v-86h86zM758 586v-586h-694v860h586l28 64h-614c-36 0-64-28-64-64v-860c0-36 28-64 64-64h694c36 0 64 28 64 64v572z" />
<glyph unicode="&#x4d;" glyph-name="cs-documents-new-client-review" data-tags="cs-documents-new-client-review" d="M278 512h352v-64h-352zM278 384h352v-64h-352zM278 256h352v-64h-352zM182 512h64v-64h-64zM182 384h64v-64h-64zM182 256h64v-64h-64zM854 964c-92 0-170-78-170-170 0-94 78-170 170-170 94 0 170 74 170 166 0 94-76 174-170 174zM960 774h-86v-86h-36v86h-86v36h86v86h36v-86h86zM758 582v-586h-694v864h586l28 64h-614c-36 0-64-28-64-64v-860c0-36 28-64 64-64h694c36 0 64 28 64 64v572z" />
<glyph unicode="&#x4e;" glyph-name="cs-download" data-tags="cs-download" d="M870 448l-72 72-234-236v624h-104v-624l-234 236-72-72 358-358 358 358M102-64h820v102h-820z" />
<glyph unicode="&#x4f;" glyph-name="cs-documents-task" data-tags="cs-documents-task" d="M384 412h384v-64h-384zM384 576h384v-64h-384zM384 252h384v-64h-384zM260 412h64v-64h-64zM260 576h64v-64h-64zM260 252h64v-64h-64zM860 892h-210c-32 42-80 72-134 72-56 0-104-26-136-72h-216c-36 0-64-28-64-64v-828c0-36 28-64 64-64h694c34 0 64 28 64 64v828c2 36-26 64-62 64zM512 900c54 0 102-46 112-110h-228c14 62 62 110 116 110zM860-4h-696v832h178c-6-22-12-44-12-70v-32h362v32c0 26-4 48-14 70h180v-832z" />
<glyph unicode="&#x50;" glyph-name="cs-documents-strategic-review-and-report" data-tags="cs-documents-strategic-review-and-report" d="M692 924h-532c-36 0-64-28-64-64v-860c0-36 28-64 64-64h694c36 0 64 28 64 64v678zM692 828l146-156h-150v156zM160 0v860h468v-208c0-24 18-44 44-44h182v-608zM256 192h512v-64h-512zM256 320h512v-64h-512zM554 540c0-82-68-150-150-150-84 0-148 70-148 150s68 152 150 152v-152z" />
<glyph unicode="&#x51;" glyph-name="cs-documents-sticky-note" data-tags="cs-documents-sticky-note" d="M1012 164c0 0-84 98-122 200-38 104-42 340-42 340 0 28-20 52-48 58v2h-716c-4 0-8 4-14 4-16 4-38 6-58-10-6-10-12-18-12-32v-688c0-28 38-106 84-106h688c56 0 60 106 60 106v22h112c42 0 80 56 80 84v10zM768 42c0-10-4-42-10-42h-668c-10-4-26 32-26 42v352c6-38 16-78 26-110 42-150 74-224 154-224h524zM938 124h-698c-28 0-52 30-90 176-38 142-64 368-66 394 0 0 0 4 2 6h702c0-28 2-252 44-358 36-90 92-176 116-208-8 0-8-10-10-10z" />
<glyph unicode="&#x52;" glyph-name="cs-documents-rop" data-tags="cs-documents-rop" d="M692 924h-532c-36 0-64-28-64-64v-860c0-36 28-64 64-64h694c36 0 64 28 64 64v678zM692 828l146-156h-150v156zM160 0v860h468v-208c0-24 18-44 44-44h182v-608zM384 580c-44 0-80 34-80 80 0 44 36 80 80 80s80-36 80-80c0-46-36-80-80-80zM512 416h-256v-4c0 80 48 148 128 148s128-64 128-144zM256 192h512v-64h-512zM256 320h512v-64h-512z" />
<glyph unicode="&#x53;" glyph-name="cs-documents-report-new" data-tags="cs-documents-report-new" d="M854 964c-92 0-170-78-170-170 0-94 78-170 170-170 94 0 170 74 170 166 0 94-76 174-170 174zM960 774h-86v-86h-36v86h-86v36h86v86h36v-86h86zM758 582v-586h-694v864h586l28 64h-614c-36 0-64-28-64-64v-860c0-36 28-64 64-64h694c36 0 64 28 64 64v572zM170 192h512v-64h-512zM170 320h512v-64h-512zM266 736h64v-288h-64zM362 672h64v-224h-64zM170 576h64v-128h-64z" />
<glyph unicode="&#x54;" glyph-name="cs-documents-report" data-tags="cs-documents-report" d="M692 924h-532c-36 0-64-28-64-64v-860c0-36 28-64 64-64h694c36 0 64 28 64 64v678zM692 828l146-156h-150v156zM160 0v860h468v-208c0-24 18-44 44-44h182v-608zM224 192h512v-64h-512zM224 320h512v-64h-512zM320 736h64v-288h-64zM416 672h64v-224h-64zM224 576h64v-128h-64z" />
<glyph unicode="&#x55;" glyph-name="cs-documents-note" data-tags="cs-documents-note" d="M704 924h-532c-34 0-64-28-64-64v-860c0-36 30-64 64-64h696c34 0 64 28 64 64v678zM852 672h-152v156zM682 608h32v-128h-384v128zM868 0h-696v860h468v-188h-372v-256h512v192h88zM268 224h512v-64h-512zM268 352h512v-64h-512z" />
<glyph unicode="&#x56;" glyph-name="cs-documents-new-task" data-tags="cs-documents-new-task" d="M854 960c-92 0-170-76-170-170 0-92 78-170 170-170 94 0 170 78 170 170 0 94-76 170-170 170zM960 774h-86v-86h-36v86h-86v36h86v86h36v-86h86zM284 416h384v-64h-384zM284 580h384v-64h-384zM284 256h384v-64h-384zM160 416h64v-64h-64zM160 580h64v-64h-64zM160 256h64v-64h-64zM412 900c56 0 104-46 112-110h-226c12 64 58 110 114 110zM758 598v-598h-694v828h180c-8-18-14-44-14-70v-32h362v32c0 26-4 48-12 70h66l20 64h-122c-32 42-80 72-134 72s-102-26-134-72h-212c-36 0-64-28-64-64v-828c0-36 28-64 64-64h694c36 0 64 28 64 64v572z" />
<glyph unicode="&#x57;" glyph-name="cs-documents-new-strategic-review-and-report" data-tags="cs-documents-new-strategic-review-and-report" d="M854 964c-92 0-170-78-170-170 0-94 78-170 170-170 94 0 170 74 170 166 0 94-76 174-170 174zM960 774h-86v-86h-36v86h-86v36h86v86h36v-86h86zM758 582v-586h-694v864h586l28 64h-614c-36 0-64-28-64-64v-860c0-36 28-64 64-64h694c36 0 64 28 64 64v572zM156 192h512v-64h-512zM156 320h512v-64h-512zM454 540c0-82-66-150-150-150s-150 68-150 150c0 84 70 148 154 148v-150h146z" />
<glyph unicode="&#x58;" glyph-name="cs-documents-new-rop" data-tags="cs-documents-new-rop" d="M854 964c-92 0-170-78-170-170 0-94 78-170 170-170 94 0 170 74 170 166 0 94-76 174-170 174zM960 774h-86v-86h-36v86h-86v36h86v86h36v-86h86zM758 582v-586h-694v864h586l28 64h-614c-36 0-64-28-64-64v-860c0-36 28-64 64-64h694c36 0 64 28 64 64v572zM284 580c-44 0-80 34-80 80 0 44 36 80 80 80 46 0 80-36 80-80 0-46-34-80-80-80zM412 416h-256v-4c0 80 48 148 128 148s128-64 128-144zM156 192h512v-64h-512zM156 320h512v-64h-512z" />
<glyph unicode="&#x59;" glyph-name="cs-documents-new-note" data-tags="cs-documents-new-note" d="M854 964c-92 0-170-78-170-170 0-94 78-170 170-170 94 0 170 74 170 166 0 94-76 174-170 174zM960 774h-86v-86h-36v86h-86v36h86v86h36v-86h86zM758 582v-586h-694v864h586l28 64h-614c-36 0-64-28-64-64v-860c0-36 28-64 64-64h694c36 0 64 28 64 64v572zM608 448h-384v128h384M160 640v-256h512v256zM160 192h512v-64h-512zM160 320h512v-64h-512z" />
<glyph unicode="&#x5a;" glyph-name="cs-documents-new-dcdo" data-tags="cs-documents-new-dcdo" d="M188 256h352v-64h-352zM188 384h352v-64h-352zM188 512h352v-64h-352zM572 256h64v-64h-64zM572 384h64v-64h-64zM572 512h64v-64h-64zM854 964c-92 0-170-78-170-170 0-94 78-170 170-170 94 0 170 74 170 166 0 94-76 174-170 174zM960 774h-86v-86h-36v86h-86v36h86v86h36v-86h86zM758 582v-586h-694v864h586l28 64h-614c-36 0-64-28-64-64v-860c0-36 28-64 64-64h694c36 0 64 28 64 64v572z" />
<glyph unicode="&#x5b;" glyph-name="cs-more-details" data-tags="cs-more-details" d="M0 704h666v102h-666zM0 396h256v104h-256zM0 90h666v102h-666zM768 704l-72-72 134-132h-472v-104h472l-134-132 72-72 256 256z" />
<glyph unicode="&#x5c;" glyph-name="cs-rearrange" data-tags="cs-rearrange" d="M452 768h448v-64h-448zM292 480h448v-64h-448zM132 192h448v-64h-448zM976 204l-76-80v452h-64v-454l-84 82-44-44 112-116 44-44 156 160zM132 320h64v452l76-80 44 44-156 160-44-44-112-116 44-44 84 82z" />
<glyph unicode="&#x5d;" glyph-name="cs-apps-1" data-tags="cs-apps-1" d="M192 384h416v-64h-416zM544 672v-128h-288v128h288M608 736h-416v-256h416zM192 224h416v-64h-416zM864-32h-806c-32 0-58 32-58 80v800c0 38 22 80 58 80h668c46 0 74-48 74-80v-144h156c46 0 68-44 68-80v-484c0-6 0-76-44-124-26-26-58-38-96-38-8 0-14 0-20 0zM68 32h704c-36 48-36 112-36 112v704c0 4-6 16-12 16h-656c0-4-4-10-4-16v-800c0-6 4-12 4-16zM800 640v-496c0 0 0-54 28-84 14-12 32-18 56-18 22 0 38 6 50 18 30 30 30 80 30 80v484c0 6-4 12-8 16z" />
<glyph unicode="&#x5e;" glyph-name="cs-forecast-down" data-tags="cs-forecast-down" d="M762 148h-352v-102h512v564l-102-4v-370l-632 622-74-74 648-636" />
<glyph unicode="&#x5f;" glyph-name="cs-notifications" data-tags="cs-notifications" d="M210 162c30 56 50 132 72 216 56 208 106 356 244 356 142 0 196-148 258-360 24-82 46-156 78-212zM536 26c-28 0-56 16-70 42h140c-14-26-40-42-70-42zM874 400c-48 158-104 348-250 408 0 58-40 104-88 104-46 0-84-44-88-98-158-48-210-248-254-412-30-110-60-224-108-248v-84h290c18-78 84-134 160-134 78 0 142 56 160 134h292v84c-50 24-82 138-114 246z" />
<glyph unicode="&#x60;" glyph-name="cs-orderbook" data-tags="cs-orderbook" d="M628 612l16-62c0 0 112 30 220 0l16 62c-122 32-246 0-252 0zM384 548l16 60c-124 36-246 0-252 0l16-60c2 0 114 28 220 0zM628 400l16-60c0 0 112 28 220 0l16 60c-122 32-246 0-252 0zM156 400l16-60c0 0 112 28 222 0l16 60c-126 32-250 0-254 0zM1014 820c-2 2-76 82-246 82-118 0-204-26-246-42 0 4-6 4-10 4s-10 0-12-4c-42 16-126 46-244 46-166 0-244-80-246-84-6-10-10-16-10-26v-770c0-10 4-20 12-26 8-4 14-6 20-6 4 0 6 0 10 0 0 0 122 34 220 34 102 0 240-32 240-32 4 0 6 0 10 0 0 0 4 0 4 0s0 0 2 0c4 0 6 0 10 0 0 0 138 32 240 32 100 0 218-34 220-34 4 0 8 0 10 0 6 0 14 2 20 6 10 6 12 16 12 26v770c-6 10-10 16-16 24zM64 68v716c22 16 80 58 192 58s192-26 224-38v-734c-52 10-140 26-218 26-74-4-150-20-198-28zM960 68c-44 8-124 24-198 24-78 0-170-16-218-24v732c32 12 112 38 228 38 108 0 168-38 188-58z" />
<glyph unicode="&#x61;" glyph-name="cs-accordian-open" data-tags="cs-accordian-open" d="M564 500v306h-104v-306h-306v-104h306v-306h104v306h306v104h-306" />
<glyph unicode="&#x62;" glyph-name="cs-accordian-close" data-tags="cs-accordian-close" d="M154 346h716v102h-716z" />
<glyph unicode="&#x63;" glyph-name="cs-add-workflow" data-tags="cs-add-workflow" d="M896 576c-60 0-108-42-122-96h-138c-12 54-64 96-120 96-58 0-110-42-122-96h-144c-14 54-64 96-122 96-70 0-128-58-128-128s58-128 128-128c60 0 108 42 122 96h138c16-54 64-96 120-96 62 0 110 42 122 96h138c12-54 64-96 122-96 70 0 128 58 128 128 6 70-52 128-122 128zM128 384c-36 0-64 28-64 64s28 64 64 64c36 0 64-28 64-64s-28-64-64-64zM512 384c-36 0-64 28-64 64s28 64 64 64c36 0 64-28 64-64s-28-64-64-64zM896 384c-36 0-64 28-64 64s28 64 64 64c36 0 64-28 64-64s-28-64-64-64z" />
<glyph unicode="&#x64;" glyph-name="cs-add-circle" data-tags="cs-add-circle" d="M544 640h-64v-160h-160v-64h160v-160h64v160h160v64h-160zM512 864c230 0 416-186 416-416s-186-416-416-416c-230 0-416 186-416 416s186 416 416 416M512 928c-266 0-480-214-480-480s214-480 480-480c266 0 480 214 480 480s-214 480-480 480z" />
<glyph unicode="&#x65;" glyph-name="cs-forecast-neutral" data-tags="cs-forecast-neutral" d="M848 422l-266-266 60-62 384 384-378 380-62-62 270-272h-856v-102h848" />
<glyph unicode="&#x66;" glyph-name="cs-alert-triangle" data-tags="cs-alert-triangle" d="M176 104h672l-336 588zM1018 4h-1014l508 888zM460 556h104v-292h-104zM460 212h104v-76h-104z" />
<glyph unicode="&#x67;" glyph-name="cs-alert-triangle-pending" data-tags="cs-alert-triangle-pending" d="M176 104h786l-108 190h-114l-228 398zM1018 4h-1014l508 888zM460 556h104v-292h-104zM460 212h104v-76h-104zM666 212h76v-76h-76zM768 212h76v-76h-76z" />
<glyph unicode="&#x68;" glyph-name="cs-arrow-left" data-tags="cs-arrow-left" d="M460 806l72-72-236-234h626v-104h-626l236-234-72-72-358 358 358 358" />
<glyph unicode="&#x69;" glyph-name="cs-arrow-right" data-tags="cs-arrow-right" d="M588 704l-70-72 132-132h-470v-104h470l-132-132 70-72 256 256z" />
<glyph unicode="&#x6a;" glyph-name="cs-attachment" data-tags="cs-attachment" d="M968 534l-372-454-80 66 374 452c48 62 32 158-40 216-68 56-162 56-212 2l-2-2-514-624c-28-34-18-90 24-124s100-34 128 0v0l372 454c4 4 4 10 4 12-2 8-6 16-14 22-12 10-28 10-34 2l-246-298-78 66 244 298c44 52 124 56 180 10 26-20 44-50 48-82 6-34-2-66-22-92l-2-4-374-454c0 0-2-2-2-2-34-40-84-60-136-60-46 0-94 16-132 48-84 70-102 188-40 266 0 0 0 2 2 2l510 622c0 2 2 2 4 4 86 100 246 106 358 12 114-92 138-254 52-358" />
<glyph unicode="&#x6b;" glyph-name="cs-audio-off" data-tags="cs-audio-off" d="M396 264l-20-20c40-22 88-34 140-34 142 0 258 96 258 216v100h102v-100c0-160-134-292-308-314v-64h140v-104h-384v104h142v64c-62 6-116 28-164 58l-234-234-72 72 230 230c-44 54-68 118-68 188v100h102v-100c0-42 14-82 38-114l24 24c-22 34-36 76-36 122v260c0 124 104 226 230 226 114 0 208-82 228-188l212 212 72-72-282-282v-156c0-124-102-226-230-226-44 0-84 12-120 32zM644 658v60c0 68-56 122-128 122-70 0-128-54-128-122v-260c0-18 4-32 10-48zM644 512l-170-170c12-6 28-8 42-8 72 0 128 56 128 124z" />
<glyph unicode="&#x6c;" glyph-name="cs-audio-on" data-tags="cs-audio-on" d="M512 832c-70 0-128-56-128-122v-262c0-68 58-122 128-122s128 54 128 122v262c0 66-58 122-128 122M512 224c-126 0-230 100-230 224v262c0 124 104 224 230 224 128 0 230-100 230-224v-262c0-124-102-224-230-224M872 518v-100c0-162-134-294-308-316v-64h140v-102h-384v102h140v64c-174 22-308 154-308 316v100h104v-100c0-120 114-216 256-216s258 96 258 216v100z" />
<glyph unicode="&#x6d;" glyph-name="cs-birthday" data-tags="cs-birthday" d="M928 320h-64v170c0 54-42 82-96 82h-140v190h-64v-186h-116v186h-64v-186h-112c-54 0-96-32-96-84v-168h-80c-54 0-96-42-96-96v-192c0-56 42-96 96-96h832c54 0 96 40 96 96v192c0 50-42 92-96 92zM960 32c0-20-12-32-32-32h-832c-20 0-32 12-32 32v192c0 20 12 32 32 32h144l-4 234c0 18 14 18 32 18h500c16 0 32-2 32-18v-234h128c20 0 32-12 32-32zM416 796c16 0 32 16 32 36s-16 68-32 68c-20 0-36-48-36-68s16-36 36-36zM596 796c18 0 34 16 34 36s-16 68-34 68c-20 0-36-48-36-68s16-36 36-36z" />
<glyph unicode="&#x6e;" glyph-name="cs-client-list" data-tags="cs-client-list" d="M644 484h380v-64h-380zM708 262h316v-64h-316zM332 448c106 0 192 86 192 192s-86 192-192 192c-104 0-192-86-192-192 4-106 88-192 192-192M332 768c72 0 128-58 128-128s-56-128-128-128c-70 0-128 58-128 128 4 70 62 128 128 128M332 400c-182 0-332-176-332-336h666c2 160-148 336-334 336M332 128h-262c30 96 134 204 262 204s234-108 264-204zM580 704h444v-64h-444z" />
<glyph unicode="&#x6f;" glyph-name="cs-client" data-tags="cs-client" d="M666 730c0 70-58 128-128 128-72 0-128-58-128-128 0-72 56-128 128-128 70 0 128 56 128 128zM768 730c0-128-104-230-230-230-128 0-230 102-230 230 0 126 102 230 230 230 126 0 230-104 230-230zM154-64v180c0 154 126 280 282 280h152c156 0 282-126 282-280v-180h102v180c0 212-172 384-384 384h-152c-212 0-384-172-384-384v-180h102" />
<glyph unicode="&#x70;" glyph-name="cs-checkmark-empty" data-tags="cs-checkmark-empty" d="M1024 448c0-282-230-512-512-512s-512 230-512 512c0 282 230 512 512 512s512-230 512-512zM922 448c0 226-184 410-410 410s-410-184-410-410c0-226 184-410 410-410s410 184 410 410z" />
<glyph unicode="&#x71;" glyph-name="cs-checmark-checked" data-tags="cs-checmark-checked" d="M1024 438c0-282-230-512-512-512s-512 230-512 512c0 282 230 512 512 512s512-230 512-512zM922 438c0 226-184 410-410 410s-410-184-410-410c0-226 184-410 410-410s410 184 410 410zM716 668l-292-292-116 118-72-72 188-194 364 364z" />
<glyph unicode="&#x72;" glyph-name="cs-cancel-no-circle" data-tags="cs-cancel-no-circle" d="M512 376l-260-262-72 74 260 260-260 260 72 72 260-260 260 260 74-72-262-260 262-260-74-74z" />
<glyph unicode="&#x73;" glyph-name="cs-cancel-circle" data-tags="cs-cancel-circle" d="M624 604l-112-112-112 112-44-44 112-112-112-112 44-44 112 112 112-112 44 44-112 112 112 112zM512 864c230 0 416-186 416-416s-186-416-416-416c-230 0-416 186-416 416s186 416 416 416M512 928c-266 0-480-214-480-480s214-480 480-480c266 0 480 214 480 480s-214 480-480 480z" />
<glyph unicode="&#x74;" glyph-name="cs-call-missed" data-tags="cs-call-missed" d="M638 224l-14-4c-18-4-44-4-78 6-48 14-102 48-156 102-56 54-88 108-102 156-4 18-6 36-6 52 0 6 0 12 2 16 0 4 0 4 0 6 2 0 2 0 2 2 0 0 0 0 0 2l4 12 86 86-150 152-106-108c-2-4-4-10-8-18-6-24-8-52-4-84 10-98 72-214 206-348s252-196 352-210c32-4 62-2 84 4 10 4 16 6 20 6l106 108-150 150zM388 512c8-32 30-68 74-112 44-42 82-66 114-76 6-2 10-2 14-4l136 136 294-294-36-36-152-154-6-2c-34-22-92-36-172-26-124 14-264 88-412 236-150 150-222 288-236 410-10 80 8 138 28 172l8 8 184 186 296-296-136-136c0-4 0-8 2-12zM914 778l94-88-70-74-100 92-100-92-68 74 94 88-94 88 68 76 100-94 100 94 70-76z" />
<glyph unicode="&#x75;" glyph-name="cs-call-lost" data-tags="cs-call-lost" d="M766 50c-4 0-10-2-18-6-24-6-52-8-86-4-90 12-194 64-312 170l76 78c40-34 80-56 116-66 34-10 60-10 78-6l14 4 88 88 150-150zM104 598c-4 32-2 60 6 84 2 8 4 14 6 18l106 106 152-150-88-86-4-12v-2c0-2 0-2 0-2-2-4-2-4-2-6 0-6 0-10-2-16 0-16 2-34 8-52 10-38 32-78 68-120l-76-76c-110 118-164 224-174 314zM722 452l-136-136c-4 2-8 2-14 4-22 6-46 20-74 40l432 434-72 72-432-434c-22 28-36 52-42 74-2 6-2 10-2 14l136 136-296 296-184-186-6-8c-22-34-38-92-30-172 12-112 76-238 202-376l-186-186 72-74 188 188c134-122 258-186 372-198 80-10 138 4 172 26l6 2 154 154 34 36z" />
<glyph unicode="&#x76;" glyph-name="cs-call-hangup" data-tags="cs-call-hangup" d="M744 46v94l-6 10c0 0 0 0 0 2 0 0 0 0 0 0-2 2-2 2-4 6s-6 8-10 12c-10 10-22 20-38 28-38 24-104 48-176 50-70 2-134-20-174-42-28-14-44-32-54-46l-6-10v-104h-170l-2 124c2 4 4 8 8 16 12 18 28 38 52 56 72 54 176 84 346 82 172-4 270-24 342-82 22-20 38-40 50-58 4-8 6-12 8-16v-122zM1020 166l-2 10c-8 36-34 84-92 130-88 72-222 116-414 122-192 2-328-36-416-104-58-44-86-90-94-126l-2-4v-198l2-54h378v174c2 2 6 4 10 8 28 14 66 22 122 20 56 0 94-10 118-26 6-2 8-4 12-6v-176h378z" />
<glyph unicode="&#x77;" glyph-name="cs-call-active" data-tags="cs-call-active" d="M658 548c6-36-20-68-54-72s-66 20-70 54c-4 36 20 68 54 72s66-20 70-54M816 694c6-34-20-66-54-70s-66 20-70 54c-4 34 20 66 54 70 34 6 66-18 70-54M974 842c4-34-20-66-54-70-34-6-66 20-70 54s20 66 54 70c34 4 66-20 70-54M770 54c-4 0-10-2-20-6-22-6-52-8-84-4-100 14-218 76-352 210-134 132-196 250-206 348-4 32-2 60 4 84 4 8 6 14 8 18l106 108 150-152-86-86-4-12c0-2 0-2 0-2 0-2 0-2-2-2 0-2 0-2 0-6-2-4-2-10-2-16 0-16 2-34 8-52 12-48 44-102 100-156 54-54 108-88 156-102 34-10 60-10 78-6l14 4 88 88 150-150zM726 456l-136-136c-4 2-8 2-14 4-32 10-70 34-114 76-44 44-66 80-74 112-2 4-2 8-2 12l136 136-296 296-192-194c-20-34-38-92-28-172 14-122 86-260 236-410 148-148 288-222 412-236 80-10 138 4 172 26l6 2 4 4 148 150 36 36z" />
<glyph unicode="&#x78;" glyph-name="cs-call" data-tags="cs-call" d="M634 228l-14-4c-18-4-44-4-78 6-48 14-100 48-156 102-54 56-86 108-100 156-6 18-8 36-8 52 2 6 2 12 2 16l2 6v4l4 12 88 86-152 152-106-108c-2-4-4-10-6-18-6-24-10-50-6-84 12-98 74-214 206-348 134-134 252-196 352-210 34-4 62-2 86 6 8 2 14 4 18 4l106 108-150 150zM384 516c8-32 32-68 74-112 44-42 82-66 114-76 6-2 10-2 14-2l136 134 296-294-190-190-6-2c-34-22-92-36-172-26-124 14-262 88-412 236-148 150-222 288-236 412-8 78 8 136 30 170l6 10 184 184 296-296-136-136c0-4 0-8 2-12z" />
<glyph unicode="&#x79;" glyph-name="cs-calendar" data-tags="cs-calendar" d="M768 858h204v-922h-920v922h204v102h102v-102h308v102h102zM154 38h716v410h-716zM256 756h-102v-206h716v206h-102v-104h-102v104h-308v-104h-102z" />
<glyph unicode="&#x7a;" glyph-name="cs-bookmark" data-tags="cs-bookmark" d="M158 856v-736l342 316 342-316v736zM946-118l-446 412-446-412v1078h892z" />
<glyph unicode="&#x7b;" glyph-name="cs-plus" data-tags="cs-plus" d="M564 500v306h-104v-306h-306v-104h306v-306h104v306h306v104h-306" />
<glyph unicode="&#x7c;" glyph-name="cs-preview" data-tags="cs-preview" d="M506 288c-58 0-106 50-106 112 0 60 48 110 106 110 60 0 108-50 108-110h92c0 110-88 202-200 202-110 0-198-92-198-202 0-112 88-204 198-204v92M998 400c-8-10-20-26-38-46-30-36-64-70-102-102-110-94-228-152-350-152s-240 58-350 152c-36 32-70 66-100 102-18 20-32 36-38 46l-20 28 20 26c6 10 20 26 38 48 30 34 64 68 100 102 110 94 228 152 350 152s240-58 350-152c38-34 72-68 102-102 18-22 30-38 38-48l18-26zM890 442c-28 30-58 62-92 92-94 80-194 130-290 130s-194-50-288-130c-34-30-66-62-92-92-6-6-10-10-12-14 2-4 6-10 12-14 26-32 58-64 92-92 94-82 192-130 288-130s196 48 290 130c34 28 64 60 92 92 4 4 8 10 12 14-4 4-8 8-12 14z" />
<glyph unicode="&#x7d;" glyph-name="cs-print" data-tags="cs-print" d="M768 756h256v-512h-204v-308h-616v308h-204v512h256v204h512zM922 346v306h-820v-306h102v154h616v-154zM308 38h408v358h-408zM358 756h308v102h-308z" />
<glyph unicode="&#x7e;" glyph-name="cs-prospect" data-tags="cs-prospect" d="M864 852h-32v-62h32c10 0 20 4 26 10 2 4 6 10 6 20 0 12-4 18-10 24-2 4-12 8-22 8zM854 960c-92 0-170-76-170-170 0-92 78-170 170-170 94 0 170 74 170 170s-76 170-170 170zM924 788c-6-10-12-16-22-20s-18-6-32-6h-38v-62h-36v176h74c22 0 36-6 48-16 10-8 16-24 16-40 0-14-2-24-10-32zM864 852h-32v-62h32c10 0 20 4 26 10 2 4 6 10 6 20 0 12-4 18-10 24-2 4-12 8-22 8zM512 396c-182 0-332-172-332-332 98 0 150 0 332 0s266 0 332 0c4 160-146 332-332 332zM512 128h-262c28 96 134 204 262 204s234-108 262-204zM636 652c0-2 0-8 0-12 0-70-56-128-128-128-70 0-128 58-128 128s62 128 128 128c46 0 84-22 106-58-10 36-12 68-6 94-26 18-60 28-96 28-106 0-192-86-192-192 4-106 86-192 192-192 92 0 170 68 188 154-16 6-44 18-64 50z" />
<glyph unicode="&#xa8;" glyph-name="cs-qr-code" data-tags="cs-qr-code" d="M0 550v410h410v-410zM102 652h206v206h-206zM204 140h206v206h-206zM614 550h206v206h-206zM614-64v410h410v-410zM716 38h206v206h-206zM102 294h-102v-358h358v102h-256v256M922 858v-256h102v358h-358v-102h256" />
<glyph unicode="&#xf6;" glyph-name="cs-scan" data-tags="cs-scan" d="M308 244v408h408v-408zM410 346h204v204h-204zM922 652h102v308h-308v-102h206v-206M922 244h102v-308h-308v102h206v206M102 244h-102v-308h308v102h-206v206M102 858v-206h-102v308h308v-102h-206" />
<glyph unicode="&#x2c6;" glyph-name="cs-notebook" data-tags="cs-notebook" d="M960 964h-864c-36 0-64-30-64-64v-72h-32v-66h32v-132h-32v-66h32v-132h-32v-68h32v-130h-32v-68h32v-162c0-36 28-64 64-64h864c36 0 64 28 64 64v896c0 34-28 64-64 64zM228 4h-128v162h64v68h-64v130h64v68h-64v132h64v66h-64v132h64v66h-64v68h130v-892zM956 4h-662v892h662zM816 564h-396v130h396M352 762v-266h528v266zM352 260h528v-68h-528zM352 390h528v-66h-528z" />
<glyph unicode="&#x3038;" glyph-name="cs-zodiac-rabbit" data-tags="cs-zodiac-rabbit" d="M630 330c-12-14-12-32 0-46l112-104c6-8 14-10 22-10 10 0 16 2 24 10 12 12 12 32 0 44l-112 106c-14 12-32 12-46 0zM1020 230c-2 16-18 30-34 30-16-4-30-20-30-36 0 0 14-100-44-164-32-34-80-54-148-56-80 0-140 22-176 66-76 94-40 256-40 260 0 6 0 10 0 16h112l96 290-238-18 70 220-214-26 74 94c10 12 10 34-6 44-10 10-32 10-42-6l-220-276c-10-12-10-34 6-44 6-4 12-6 18-6 10 0 20 2 26 12l90 112 182 22-42-128c-2-8-2-16 4-24l-260-24 52-242h112c-52-110-150-246-348-346-16-6-24-26-14-42 6-12 16-18 30-18 2 0 8 0 12 2 230 116 336 278 388 404h50c-2-6-42-196 52-314 48-60 124-92 224-92 2 0 2 0 6 0 84 0 150 28 196 76 72 86 56 208 56 214zM308 410l-26 122 154 12c-10-6-16-12-20-26 0-2-4-48-26-108zM458 548l208 16-52-154h-154c20 60 24 98 24 106-4 12-14 24-26 32z" />
<glyph unicode="&#xe000;" glyph-name="cs-refresh-reload" data-tags="cs-refresh-reload" d="M564 806c-204 0-370-158-384-358h-128l192-302 194 302h-156c14 144 134 256 282 256 154 0 280-126 280-282s-126-282-280-282v-102c212 0 384 172 384 384s-172 384-384 384" />
<glyph unicode="&#xe001;" glyph-name="cs-remove" data-tags="cs-remove" d="M320 480h384v-64h-384zM512 864c230 0 416-186 416-416s-186-416-416-416c-230 0-416 186-416 416s186 416 416 416M512 928c-266 0-480-214-480-480s214-480 480-480c266 0 480 214 480 480s-214 480-480 480z" />
<glyph unicode="&#xe002;" glyph-name="cs-reply" data-tags="cs-reply" d="M1024 398l-154 204-154-204h104v-204h-666v-102h768v306h102M0 500l154-204 154 204h-104v204h666v102h-768v-306h-102" />
<glyph unicode="&#xe003;" glyph-name="cs-reversed" data-tags="cs-reversed" d="M364 500h558v-462h-718v102h616v256h-458l106-94-68-76-244 220h-2v2h2l244 220 68-76z" />
<glyph unicode="&#xe004;" glyph-name="cs-search" data-tags="cs-search" d="M442 180c-186 0-338 152-338 338s152 338 338 338c186 0 338-152 338-338s-152-338-338-338zM1024 10l-236 236c60 74 96 170 96 272 0 244-198 442-442 442s-442-198-442-442c0-244 198-442 442-442 102 0 198 36 272 96l236-236z" />
<glyph unicode="&#xe005;" glyph-name="cs-security-locked" data-tags="cs-security-locked" d="M798 602h124v-666h-820v666h136v78c0 154 124 280 280 280 154 0 280-126 280-280zM204 38h616v462h-616zM340 680v-78h354v78c0 98-78 178-176 178s-178-80-178-178zM460 206c-30 18-50 50-50 88 0 56 46 102 102 102s102-46 102-102c0-38-20-70-50-88v-116h-104z" />
<glyph unicode="&#xe006;" glyph-name="cs-security-unlocked" data-tags="cs-security-unlocked" d="M204 38h616v462h-616zM354 750l-98 32c42 104 142 178 262 178 154 0 280-126 280-280v-78h124v-666h-820v666h592v78c0 98-78 178-176 178-74 0-138-46-164-108zM460 206v-116h104v116c30 18 50 50 50 88 0 56-46 102-102 102s-102-46-102-102c0-38 20-70 50-88z" />
<glyph unicode="&#xe007;" glyph-name="cs-selection" data-tags="cs-selection" d="M420 522l208-484 104 112 224-214 58 60-218 232 110 98zM476 118h-384c-54 0-96 42-96 96v650c0 54 42 96 96 96h650c54 0 96-42 96-96v-436h-64v436c0 20-12 32-32 32h-650c-18 0-32-12-32-32v-650c0-18 14-32 32-32h384z" />
<glyph unicode="&#xe008;" glyph-name="cs-share" data-tags="cs-share" d="M548-58h-72c-54 14-92 64-92 122 0 54 36 102 86 120v224h-222c-16-50-64-88-120-88-70 0-128 58-128 128s58 128 128 128c54 0 100-34 118-82h224v218c-50 18-86 66-86 120 0 70 58 128 128 128s128-58 128-128c0-54-36-102-86-120v-218h224c18 48 64 82 118 82 58 0 108-40 122-92v-72c-14-52-64-92-122-92-56 0-104 38-120 88h-222v-224c50-18 86-66 86-120 0-58-38-108-92-122M510 110c-24 0-42-18-42-42s18-42 42-42c22 0 42 18 42 42s-20 42-42 42M892 492c-24 0-42-18-42-42 0-22 18-42 42-42s42 20 42 42c0 24-18 42-42 42M126 492c-22 0-42-18-42-42 0-22 20-42 42-42 24 0 42 20 42 42 0 24-18 42-42 42M510 876c-24 0-42-20-42-42 0-24 18-42 42-42 22 0 42 18 42 42 0 22-20 42-42 42" />
<glyph unicode="&#xe009;" glyph-name="cs-share-ios" data-tags="cs-share-ios" d="M292 740l62-60 114 114v-398h88v398l114-114 62 60-220 220zM768 550h-154v102h256v-716h-716v716h256v-102h-154v-512h512z" />
<glyph unicode="&#xe00a;" glyph-name="cs-sort" data-tags="cs-sort" d="M36 288h544v-64h-544zM36 544h544v-64h-544zM196 800h544v-64h-544zM944 300l-76-80v452h-64v-454l-84 82-44-44 112-116 44-44 156 160z" />
<glyph unicode="&#xe00b;" glyph-name="cs-sort-2" data-tags="cs-sort-2" d="M0 520l72-72 132 134v-472h104v472l132-134 72 72-256 256zM1024 376l-72 72-132-134v472h-104v-472l-132 134-72-72 256-256z" />
<glyph unicode="&#xe00c;" glyph-name="cs-spriral" data-tags="cs-spriral" d="M496-20c-10 0-20 0-28 0-132 8-256 68-346 168-84 96-128 216-118 342 6 122 64 234 152 314 88 76 200 114 314 104 110-6 212-60 286-140 66-80 102-180 92-282-6-98-54-188-128-252-70-62-160-90-252-80-88 6-168 50-222 118-50 64-76 140-66 220 6 74 44 144 104 192 56 46 122 64 192 56 64-10 122-42 160-94 36-48 48-102 42-160-10-50-38-98-80-130-38-26-86-36-130-26-42 10-78 34-100 70-20 32-22 68-12 100 8 32 34 56 64 66 24 10 48 6 70-6s34-44 28-70c-6-20-22-32-44-32-20 0-32 12-32 32 0 6 2 12 6 18 0 0-4 0-6 0-10-2-22-16-26-28-6-20 0-38 6-48 14-20 32-36 58-42 36-6 64 6 80 16 28 20 48 52 54 86 6 40-2 80-28 112-30 40-70 62-118 68-52 6-104-6-144-42-46-34-74-90-80-146-8-64 12-126 54-174 44-54 108-86 178-92 74-6 148 16 206 64 60 50 98 128 106 208 6 86-20 170-78 236-60 70-146 112-240 118-96 8-192-24-266-88-76-68-124-168-130-270-14-106 22-210 96-294 76-86 186-138 300-144 122-6 238 36 330 116 92 82 150 204 156 328 0 20 16 32 36 30 20 0 32-16 28-36-6-144-72-282-178-374-96-84-218-132-346-132z" />
<glyph unicode="&#xe00d;" glyph-name="cs-star-empty" data-tags="cs-star-empty" d="M512 84l-268-148-78 58 52 316-218 222 30 96 300 46 134 286h96l134-286 300-46 30-96-218-222 52-316-78-58zM290 82l198 110h48l198-110-36 232 14 50 160 164-220 34-40 30-100 212-100-212-40-30-220-34 160-164 14-50z" />
<glyph unicode="&#xe00e;" glyph-name="cs-star-filled" data-tags="cs-star-filled" d="M512 84l-268-148-78 58 52 316-218 222 30 96 300 46 134 286h96l134-286 300-46 30-96-218-222 52-316-78-58z" />
<glyph unicode="&#xe00f;" glyph-name="cs-stylebar-align-center" data-tags="cs-stylebar-align-center" d="M128 368h768v-64h-768zM0 144h1024v-64h-1024zM0 592h1024v-64h-1024zM128 816h768v-64h-768z" />
<glyph unicode="&#xe010;" glyph-name="cs-stylebar-align-left" data-tags="cs-stylebar-align-left" d="M-4 352h768v-64h-768zM-4 128h1024v-64h-1024zM-4 576h1024v-64h-1024zM-4 800h768v-64h-768z" />
<glyph unicode="&#xe011;" glyph-name="cs-stylebar-align-right" data-tags="cs-stylebar-align-right" d="M256 352h768v-64h-768zM0 128h1024v-64h-1024zM0 576h1024v-64h-1024zM256 800h768v-64h-768z" />
<glyph unicode="&#xe012;" glyph-name="cs-stylebar-bold" data-tags="cs-stylebar-bold" d="M224 796h288c58 0 102-2 132-8 28-8 54-16 76-32s42-36 58-62c16-26 22-54 22-86 0-36-10-68-28-96-20-28-46-52-78-64 46-12 80-36 102-68 26-32 36-66 36-112 0-32-6-66-22-96-16-28-36-56-64-76-26-20-62-32-100-36-26-2-82-2-178-6h-244zM352 668v-160h112c58 0 92-2 108 0 26 4 46 10 62 26s22 32 22 58c0 22-6 42-20 54-12 14-32 22-54 26-16 4-58 0-128 0h-102zM352 380v-192h150c54 0 86 0 102 4 24 4 40 12 56 28 12 16 18 36 18 62 0 22-6 42-16 54-10 16-26 26-44 36-20 6-64 8-132 8z" />
<glyph unicode="&#xe013;" glyph-name="cs-stylebar-bullets-list" data-tags="cs-stylebar-bullets-list" d="M384 192h640v-64h-640zM384 768h640v-64h-640zM384 640h640v-64h-640zM384 320h640v-64h-640zM0 768h192v-192h-192zM0 320h192v-192h-192z" />
<glyph unicode="&#xe014;" glyph-name="cs-stylebar-colour-underline" data-tags="cs-stylebar-colour-underline" d="M96 26h832v-64h-832zM170 186l272 704h98l288-704h-104l-84 224h-294l-78-224zM374 474h240l-124 342z" />
<glyph unicode="&#xe015;" glyph-name="cs-stylebar-italic" data-tags="cs-stylebar-italic" d="M390 96l148 704h92l-146-704z" />
<glyph unicode="&#xe016;" glyph-name="cs-stylebar-justify" data-tags="cs-stylebar-justify" d="M448 832h64v-768h-64zM576 352h288v-64h-288zM576 128h448v-64h-448zM576 576h448v-64h-448zM576 832h288v-64h-288zM244 608l-46-44 84-84h-282v-64h278l-80-84 46-44 160 160z" />
<glyph unicode="&#xe017;" glyph-name="cs-stylebar-justify-all-lines" data-tags="cs-stylebar-justify-all-lines" d="M0 356h1024v-64h-1024zM0 132h1024v-64h-1024zM0 580h1024v-64h-1024zM0 804h1024v-64h-1024z" />
<glyph unicode="&#xe018;" glyph-name="cs-stylebar-numbered-list" data-tags="cs-stylebar-numbered-list" d="M188 150v-42h-152c2 16 6 30 16 46 8 16 24 32 48 54 18 20 32 32 34 38 6 10 10 20 10 26 0 10-4 16-6 22-4 6-14 6-22 6-10 0-16-2-24-8-6-8-8-16-8-30l-46 4c4 26 10 42 26 50 16 10 32 16 52 16 22 0 40-6 54-18 12-14 18-30 18-46 0-8-2-18-6-28-2-10-10-20-16-28s-16-16-28-30c-14-12-22-22-26-26-4-2-6-8-10-12h86zM384 176h640v-64h-640zM384 752h640v-64h-640zM384 624h640v-64h-640zM384 304h640v-64h-640zM134 556h-42v168c-16-16-34-26-56-32v38c12 2 22 10 38 22s22 20 26 36h34z" />
<glyph unicode="&#xe019;" glyph-name="cs-stylebar-size" data-tags="cs-stylebar-size" d="M224 32v480h-192v64h448v-64h-192v-480zM608 32v736h-256v96h640v-96h-288v-736z" />
<glyph unicode="&#xe01a;" glyph-name="cs-stylebar-small-caps" data-tags="cs-stylebar-small-caps" d="M32 160l228 608h86l242-608h-88l-72 192h-248l-64-192zM202 416h202l-104 278zM922 212c-26-24-54-40-78-48-24-10-50-14-80-14-48 0-82 14-108 36s-38 50-38 90c0 22 6 40 16 56s22 32 38 42c16 10 32 20 52 22 12 4 34 8 64 10 56 6 102 16 130 26 0 10 0 16 0 20 0 28-6 50-18 64-20 16-48 24-84 24s-60-6-76-18c-16-14-30-32-36-64l-70 10c6 32 16 54 32 72 16 20 34 32 64 46 28 10 60 16 98 16 40 0 68-4 90-14 22-8 38-18 52-32 10-12 18-28 22-50 4-14 4-36 4-68v-96c0-66 2-112 6-128 2-18 10-34 18-50h-76c-12 8-20 28-22 48zM928 374c-32-10-70-18-124-28-30-4-56-10-68-16s-22-14-28-22c-8-10-10-24-10-36 0-20 6-36 22-48s36-20 64-20c28 0 54 8 74 20 18 12 42 28 54 52 6 16 16 40 16 72z" />
<glyph unicode="&#xe01b;" glyph-name="cs-stylebar-subscript" data-tags="cs-stylebar-subscript" d="M12 192l276 368-244 336h112l128-176c26-38 46-64 58-84 16 26 36 48 58 78l144 182h102l-250-332 270-372h-118l-180 256c-10 16-20 32-32 48-16-26-28-44-36-54l-176-250zM1012 64v-64h-244c4 26 10 48 22 68 14 22 38 50 78 86 32 28 50 48 56 58 10 12 14 28 14 40 0 16-4 26-14 36-8 10-18 12-34 12-14 0-26-2-36-12s-12-22-16-42l-66 6c2 40 16 64 38 80s48 26 80 26c34 0 64-10 82-28 20-20 30-42 30-70 0-16-4-32-10-46-6-12-16-28-28-44-10-10-24-26-46-46-22-18-34-32-42-38-6-6 0-22-2-22z" />
<glyph unicode="&#xe01c;" glyph-name="cs-stylebar-superscript" data-tags="cs-stylebar-superscript" d="M26 12l274 368-242 336h112l128-176c26-38 44-64 58-82 16 26 34 48 56 76l144 186h104l-250-336 268-372h-118l-180 256c-8 16-18 32-32 48-16-24-28-44-34-54l-180-250zM998 588v-64h-256c4 26 10 48 22 68 14 22 40 52 78 86 32 30 50 48 58 58 8 12 12 28 12 42 0 16-4 26-12 34-10 10-20 14-36 14-12 0-26-4-36-14-8-8-12-22-16-40l-66 6c2 38 16 64 38 80s48 26 80 26c36 0 64-10 84-30 18-18 28-42 28-70 0-16-4-32-10-44-6-14-6-32-18-48-10-10-24-26-46-46-22-18-34-32-42-38-6-6-8-20-12-20z" />
<glyph unicode="&#xe01d;" glyph-name="cs-stylebar-underline" data-tags="cs-stylebar-underline" d="M64 32h896v-64h-896zM704 928h96v-406c0-74-12-134-28-180-16-44-48-80-94-108-44-30-102-42-176-42-70 0-128 12-172 36-42 24-68 60-86 104-16 48-20 110-20 190v406h96v-406c0-64 0-112 12-144 14-32 30-54 58-70 30-16 64-26 106-26 74 0 128 16 160 48s52 96 52 188v410z" />
<glyph unicode="&#xe01e;" glyph-name="cs-stylebar-underline-subscript" data-tags="cs-stylebar-underline-subscript" d="M0 48h544v-64h-544zM320 176l134 640h-240l16 96h574l-16-96h-238l-134-640zM688-16l96 148-90 140h86l48-74 48 74h84l-90-138 96-150h-86l-54 80-54-80z" />
<glyph unicode="&#xe01f;" glyph-name="cs-tea-cup" data-tags="cs-tea-cup" d="M854 720h-16v192h-832v-682c0-140 128-246 270-246h322c142 0 240 106 240 246v138h16c110 0 166 80 166 186 0 96-56 166-166 166zM772 230c0-106-68-182-176-182h-324c-106 0-204 76-204 182v618h416v-176l-128-96v-336h320v336l-128 96v176h224zM516 614l96-70v-240h-192v240zM854 432h-16v224h16c78 0 102-42 102-106 0-66-32-118-102-118z" />
<glyph unicode="&#xe020;" glyph-name="cs-time" data-tags="cs-time" d="M512 868c-232 0-420-188-420-420s188-420 420-420c232 0 420 188 420 420s-188 420-420 420M512-58c-280 0-506 226-506 506s226 506 506 506c280 0 506-226 506-506s-226-506-506-506M564 454l166-142-66-78-204 174v386h104z" />
<glyph unicode="&#xe021;" glyph-name="cs-timeline" data-tags="cs-timeline" d="M704 736h320v-64h-320zM704 608h320v-64h-320zM0 352h320v-64h-320zM0 224h320v-64h-320zM544 378v138c54 12 96 64 96 124s-42 108-96 124v196h-64v-196c-54-12-96-64-96-124s42-108 96-124v-138c-54-14-96-64-96-126 0-60 42-108 96-124v-192h64v196c54 12 96 64 96 124s-42 108-96 122zM448 640c0 36 28 64 64 64s64-28 64-64c0-36-28-64-64-64s-64 28-64 64zM512 192c-36 0-64 28-64 64s28 64 64 64c36 0 64-28 64-64s-28-64-64-64z" />
<glyph unicode="&#xe022;" glyph-name="cs-transfer" data-tags="cs-transfer" d="M614 960l-72-72 134-132h-472v-104h472l-134-132 72-72 256 256zM212 192l256-256 72 72-134 132h472v104h-472l134 132-72 72z" />
<glyph unicode="&#xe023;" glyph-name="cs-trash" data-tags="cs-trash" d="M318 830l60 130h266l60-130h246v-106h-884v106zM426 830h172l-14 30h-144zM796 698h102v-762h-774v762h104v-666h568zM332 100v518h102v-518zM588 100v518h104v-518z" />
<glyph unicode="&#xe024;" glyph-name="cs-triangle-negative" data-tags="cs-triangle-negative" d="M224 704l294-512 282 512z" />
<glyph unicode="&#xe025;" glyph-name="cs-triangle-positive" data-tags="cs-triangle-positive" d="M506 704l-282-512h576z" />
<glyph unicode="&#xe026;" glyph-name="cs-unfollow" data-tags="cs-unfollow" d="M868 114l108-110-72-72-108 108-110-108-72 72 110 110-110 108 72 72 110-108 108 108 72-72zM308 730c0 70 56 128 128 128 70 0 128-58 128-128 0-72-58-128-128-128-72 0-128 56-128 128zM512 524c8 0 16 0 24 0 76 38 130 114 130 206 0 126-104 230-230 230-128 0-232-104-232-230 0-92 54-168 130-206 8 0 16 0 24 0zM562 498c-8 0-16 2-24 2h-154c-8 0-16-2-24-2-202-12-360-178-360-382v-180h102v180c0 154 126 280 282 280h154c54 0 102-14 146-40l62 80c-54 36-116 58-184 62" />
<glyph unicode="&#xe027;" glyph-name="cs-upload-picture" data-tags="cs-upload-picture" d="M672 784l108-140c14-16 30-24 48-24h128v-512h-892v512h128c20 0 38 10 52 26l104 142h324M704 848h-384l-128-164h-128c-36 0-64-28-64-64v-512c0-34 28-64 64-64h896c36 0 64 30 64 64v512c0 36-28 64-64 64h-128zM512 538c76 0 138-62 138-138s-62-138-138-138c-76 0-138 62-138 138s62 138 138 138M512 608c-116 0-208-92-208-208s92-208 208-208c116 0 208 92 208 208s-92 208-208 208z" />
<glyph unicode="&#xe028;" glyph-name="cs-user" data-tags="cs-user" d="M512 448c132 0 240 108 240 240s-108 240-240 240c-132 0-240-108-240-240s108-240 240-240M512 868c100 0 180-80 180-180s-80-180-180-180c-100 0-180 80-180 180s80 180 180 180M512 388c-230 0-420-190-420-420h840c0 230-190 420-420 420M156 28c30 170 176 302 356 302s326-132 356-302z" />
<glyph unicode="&#xe029;" glyph-name="cs-video-off" data-tags="cs-video-off" d="M916 250l-286 164v-182h-252l252 332v-84l286 164zM250 232h-148v430h474zM732 656v42l150 196-82 62-146-192h-654v-634h172l-100-132 82-62 146 194h432v108l286-166v748z" />
<glyph unicode="&#xe02a;" glyph-name="cs-video-on" data-tags="cs-video-on" d="M102 248h528v184l286-166v394l-286-164v184h-528zM1018 90l-286 164v-108h-732v636h732v-108l286 164z" />
<glyph unicode="&#xe02b;" glyph-name="cs-view-grid" data-tags="cs-view-grid" d="M256 480h224v224h-224zM320 640h96v-96h-96zM544 480h224v224h-224zM704 544h-96v96h96zM256 192h224v224h-224zM320 352h96v-96h-96zM544 192h224v224h-224zM608 352h96v-96h-96z" />
<glyph unicode="&#xe02c;" glyph-name="cs-weather-cloudy" data-tags="cs-weather-cloudy" d="M582 74h-402c-100 0-180 80-180 178 0 78 52 144 122 170 0 38 12 106 58 158 40 44 98 66 172 66 102 0 188-64 220-160 36 0 100-2 148-44 42-36 64-90 64-160 6-116-86-208-202-208zM356 580c-56 0-100-16-126-46-48-50-42-130-42-138 0-16-8-32-24-34-56-10-96-58-96-112 0-64 50-116 114-116h404c80 0 144 64 144 144 0 52-14 90-42 112-48 42-124 30-124 30-16-4-36 8-40 24-18 80-88 136-168 136zM864 320c-20 0-32 12-32 32s12 32 32 32c52 0 96 42 96 96 0 44-32 86-80 92-16 4-28 16-26 36 0 4 6 70-34 116-24 24-58 38-106 38-68 0-126-48-138-116-4-16-20-28-38-26-16 4-30 20-26 40 20 96 102 166 202 166 64 0 114-20 154-58 40-44 50-102 50-134 64-22 106-80 106-150 0-94-74-164-160-164z" />
<glyph unicode="&#xe02d;" glyph-name="cs-weather-party-cloudy" data-tags="cs-weather-party-cloudy" d="M348 698c-18 0-32 12-32 32v86c0 20 14 32 32 32 20 0 32-12 32-32v-86c0-20-12-32-32-32zM118 464h-86c-20 0-32 12-32 32s12 32 32 32h86c20 0 32-12 32-32s-16-32-32-32zM186 630c-10 0-16 4-22 10l-62 60c-12 14-12 32 0 46 14 12 32 12 46 0l60-62c12-12 12-32 0-44-6-6-16-10-22-10zM518 630c-10 0-16 4-22 10-12 12-12 32 0 44l60 62c14 12 32 12 46 0 12-14 12-32 0-46l-62-60c-6-6-16-10-22-10zM124 236c-8 0-16 4-22 10-12 14-12 32 0 46l62 60c12 12 32 12 44 0s12-32 0-44l-60-62c-8-6-16-10-24-10zM308 310c-4 0-8 0-10 0-84 22-142 100-142 186 0 106 88 192 192 192 78 0 144-44 176-112 8-16 0-36-16-42-88-42-92-146-92-146 0-16-10-30-26-32-22-4-42-16-58-32-6-10-16-14-24-14zM348 624c-70 0-128-58-128-128 0-52 32-96 78-118 16 16 34 26 58 32 6 42 28 114 96 162-24 32-62 52-104 52zM842 48h-350c-86 0-160 70-160 160 0 68 42 128 106 150 4 36 10 94 52 134 34 40 86 58 154 58 88 0 166-58 194-138 32 0 86-2 128-38 38-32 58-80 58-140 0-102-84-186-182-186zM644 486c-48 0-84-12-106-38-42-44-36-112-36-116 0-16-10-32-26-34-44-6-80-48-80-94 0-50 42-96 96-96h350c64 0 118 56 118 120 0 40-12 72-36 92-40 36-104 22-104 22-16-2-36 10-40 26-8 70-66 118-136 118z" />
<glyph unicode="&#xe02e;" glyph-name="cs-weather-rain" data-tags="cs-weather-rain" d="M582 170h-402c-100 0-180 80-180 178 0 78 52 144 122 170 0 38 12 106 58 158 44 40 102 64 176 64 102 0 188-64 220-160 36 0 100-4 148-46 40-34 64-90 64-160 2-112-90-204-206-204zM356 676c-56 0-100-16-126-46-48-50-42-130-42-138 0-16-8-32-24-34-56-10-96-58-96-112 0-64 50-116 114-116h404c80 0 144 64 144 144 0 52-14 90-42 112-48 42-124 30-124 30-16-4-36 8-40 24-18 80-88 136-168 136zM864 416c-20 0-32 12-32 32s12 32 32 32c52 0 96 42 96 96 0 44-32 86-80 92-16 4-28 20-26 36 0 4 6 70-34 116-24 24-58 38-106 38-68 0-126-48-138-116-4-16-20-28-38-26-20 4-30 20-26 40 20 96 102 166 202 166 64 0 114-20 154-58 40-44 50-102 50-134 62-26 106-86 106-154 0-86-74-160-160-160zM132-22c-10 0-16 2-24 10-12 12-12 32 0 44l68 68c12 12 32 12 44 0 14-14 14-32 0-46l-66-66c-6-8-16-10-22-10zM294-22c-10 0-16 2-22 10-12 12-12 32 0 44l68 68c12 12 32 12 44 0 12-14 12-32 0-46l-68-66c-6-8-12-10-22-10zM458-22c-10 0-16 2-22 10-14 12-14 32 0 44l66 68c14 12 32 12 46 0 12-14 12-32 0-46l-68-66c-4-8-12-10-22-10zM628-22c-10 0-16 2-24 10-12 12-12 32 0 44l68 68c12 12 32 12 44 0 14-14 14-32 0-46l-66-66c-6-8-16-10-22-10z" />
<glyph unicode="&#xe02f;" glyph-name="cs-weather-snow" data-tags="cs-weather-snow" d="M582 156h-402c-100 0-180 80-180 180 0 76 52 144 122 170 0 38 12 106 58 156 44 46 102 68 176 68 102 0 188-64 220-160 36 0 100-4 150-46 42-34 64-88 64-160 0-114-92-208-208-208zM356 666c-56 0-100-16-126-46-48-50-42-130-42-136 0-16-8-32-24-36-56-10-96-58-96-112 0-64 50-116 114-116h404c80 0 144 64 144 144 0 52-14 90-42 112-48 42-124 30-124 30-16-4-36 10-40 26-18 76-88 134-168 134zM864 406c-20 0-32 14-32 32 0 20 12 32 32 32 52 0 96 42 96 96 0 46-32 86-80 94-16 2-28 16-26 34 0 4 6 70-34 116-24 26-58 38-106 38-68 0-126-48-138-116-4-16-20-28-38-24-16 2-30 18-26 38 20 96 102 166 202 166 64 0 114-20 154-58 40-44 50-102 50-134 64-22 106-80 106-150 0-94-74-164-160-164zM246 44c0-32-26-56-58-56s-56 24-56 56c0 32 24 58 56 58s58-26 58-58zM460 44c0-32-24-56-56-56s-58 24-58 56c0 32 26 58 58 58s56-26 56-58zM678 44c0-32-26-56-58-56s-56 24-56 56c0 32 24 58 56 58s58-26 58-58z" />
<glyph unicode="&#xe030;" glyph-name="cs-weather-sun" data-tags="cs-weather-sun" d="M502 772c-18 0-32 12-32 32v128c0 18 14 32 32 32 20 0 32-14 32-32v-132c0-16-16-28-32-28zM502-68c-18 0-32 14-32 32v132c0 20 14 32 32 32 20 0 32-12 32-32v-132c0-18-16-32-32-32zM154 422h-128c-20 0-32 14-32 32 0 20 12 32 32 32h130c20 0 32-12 32-32 0-18-16-32-34-32zM998 422h-130c-20 0-32 14-32 32 0 20 12 32 32 32h130c20 0 32-12 32-32 0-18-12-32-32-32zM256 672c-10 0-16 4-22 10l-94 90c-12 12-12 34 0 48 14 12 32 12 46 0l92-94c14-12 14-32 0-44-6-6-16-10-22-10zM864 64c-10 0-16 4-22 10l-94 92c-12 14-12 32 0 46 14 12 32 12 46 0l92-94c14-12 14-32 0-44-6-6-16-10-22-10zM752 672c-10 0-16 4-22 10-14 12-14 32 0 44l92 94c14 12 32 12 46 0 12-14 12-32 0-46l-94-92c-6-6-12-10-22-10zM164 84c-10 0-16 2-24 8-12 14-12 32 0 46l94 92c12 14 32 14 44 0 14-12 14-32 0-44l-92-94c-6-6-14-8-22-8zM516 180c-154 0-276 124-276 274 0 154 124 276 276 276s274-126 274-276c0-150-124-274-274-274zM516 668c-120 0-212-96-212-210 0-116 96-212 212-212 114 0 210 96 210 212 0 114-96 210-210 210z" />
<glyph unicode="&#xe031;" glyph-name="cs-client-book-planning" data-tags="cs-client-book-planning" d="M192 432h576v-64h-576zM192 304h576v-64h-576zM314 602c0-36-30-64-64-64-36 0-64 28-64 64 0 34 28 64 64 64 34 0 64-30 64-64zM948 828h-872c-34 0-64-28-64-64v-630c0-34 30-64 64-64h868c36 0 64 30 64 64v630c4 36-26 64-60 64zM940 132h-864v632h862v-632z" />
<glyph unicode="&#xe032;" glyph-name="cs-widget" data-tags="cs-widget" d="M244 0c0-36 28-64 64-64h406c34 0 64 28 64 64v896c0 36-30 64-64 64h-406c-36 0-64-28-64-64zM716 0h-406v764h406z" />
<glyph unicode="&#xe033;" glyph-name="cs-zodiac-dog" data-tags="cs-zodiac-dog" d="M972 676l-6 22h-320l160 192c14 12 10 34-2 44-14 14-36 10-46-2l-288-344c-12-12-10-34 4-44 6-6 12-6 18-6 10 0 20 2 26 12l74 86h320c12-56 38-214 16-402-10-78-42-144-64-180l-74 68c-12 12-32 10-44-4-14-12-10-32 2-44l128-116 24 30c2 2 76 104 92 240 36 246-16 438-20 448zM572 308h174l16 194-304-6 66-252c4-14 16-24 32-24 4 0 8 0 10 0 16 4 30 24 22 40zM554 372l-16 64 150 2-6-66zM490 890c12 12 10 34-4 44-12 14-34 10-44-2l-116-138c-42 60-80 86-82 90-16 8-36 6-46-8-10-16-6-34 6-44 0 0 36-28 78-90l-128-154c-14-12-10-34 2-44 8-6 14-6 20-6 10 0 20 2 26 12l112 134c16-32 32-72 44-120-80-176-320-312-322-314-16-10-24-30-14-46 6-8 16-16 30-16 6 0 8 0 16 4 8 6 204 116 310 272 12-76 16-170 2-278-6-74-34-118-54-142l-80 74c-12 14-32 10-44-2-14-14-10-32 2-46l122-108 22 16c4 2 84 60 100 202 22 268-28 444-90 556z" />
<glyph unicode="&#xe034;" glyph-name="cs-zodiac-dragon" data-tags="cs-zodiac-dragon" d="M700 676c16 2 30 18 26 38-2 18-18 28-38 26l-240-48c12 72 22 152 22 236 0 20-12 32-32 32-16 0-32-12-32-32 0-90-10-172-26-250l-214-42c-16-2-28-18-26-38 4-16 16-26 32-26 4 0 4 0 8 0l184 36c-102-394-348-614-352-618-12-12-16-32-2-44 6-6 12-10 22-10 6 0 16 4 22 6 14 14 282 250 382 682zM992 272c-20 0-32-12-32-32 0-132-154-234-282-234-26 0-64 6-92 30-26 22-36 54-36 98v100c78 58 164 144 244 262 10 16 6 36-10 44-16 10-36 8-44-8-62-94-128-164-190-216v250c0 20-12 32-32 32-18 0-32-12-32-32v-300c-92-68-162-94-166-94-16-6-26-22-20-40 4-14 16-24 32-24 4 0 8 0 10 0 6 0 64 24 148 74v-54c0-64 18-116 58-148 34-28 80-44 134-44 160 0 346 132 346 298-4 22-20 38-36 38zM612 874l134-80c6-4 10-4 16-4 10 0 22 6 28 16 10 16 4 36-10 46l-136 76c-16 10-36 4-46-10-10-12-2-34 14-44z" />
<glyph unicode="&#xe035;" glyph-name="cs-zodiac-horse" data-tags="cs-zodiac-horse" d="M676 502l48 464-440-32c-16-2-28-18-28-34s16-32 36-30l358 30-42-404-250-26 20 260c0 18-14 32-30 34-18 0-32-12-34-28l-22-336 632 64c-2-70-8-230-40-324-26-76-64-114-88-134l-82 80c-14 14-32 14-46 0-12-12-12-32 0-44l122-116 20 10c2 4 86 44 134 182 48 132 48 368 48 382v34zM764 300c-2 16-18 30-34 26l-666-96c-16-2-28-18-26-34 4-16 16-30 32-30 0 0 4 0 4 0l662 96c20 4 28 20 28 38z" />
<glyph unicode="&#xe036;" glyph-name="cs-zodiac-monkey" data-tags="cs-zodiac-monkey" d="M422 864c14 12 14 32 0 44-12 14-32 14-44 0l-126-120c-18 44-32 76-32 80-8 16-24 24-44 16-16-8-22-26-16-42 0 0 20-42 42-106l-112-108c-14-14-14-32 0-46 6-6 16-10 22-10 10 0 16 4 22 10l90 86c20-54 36-114 52-176l-272-280c-14-14-14-32 0-46 6-6 12-10 22-10s16 4 22 10l244 250c8-52 12-102 12-148-4-104-32-192-48-236l-58 44c-12 10-34 10-44-6-10-12-10-34 6-44l122-96 16 38c2 6 64 128 70 300 6 144-48 328-90 452zM682 908c12 14 12 32 0 46-14 12-32 12-46 0l-284-282c-12-12-12-32 0-44 6-8 16-10 22-10 10 0 16 2 22 10l56 54 2-710c0-20 14-32 32-32 20 0 32 16 32 32l-2 770zM666 816c2-16 18-28 38-26l76 14v-88l-198-32c-16-2-28-18-26-34 4-16 16-26 32-26 4 0 4 0 8 0l408 64c16 4 30 20 26 36-2 16-18 28-34 24l-148-22v158l-150-30c-22-2-36-18-32-38zM790 234l212 44c16 4 28 22 26 38-4 16-24 30-40 26l-204-44c6 44 10 96 12 150l128 22c16 4 30 20 26 38-2 16-18 30-38 26l-208-38 22 36c10 16 4 34-10 44-16 10-34 4-44-10l-100-162c-8-16-2-36 10-46 6-2 10-2 16-2 10 0 22 6 30 16l32 54 70 12c0-58-6-108-16-154l-158-34c-16-4-28-22-24-38 2-16 16-26 32-26 2 0 2 0 6 0l128 28c-48-162-132-214-134-214-16-10-20-28-14-44 6-10 16-16 30-16 6 0 8 0 16 2 6 4 102 62 160 238l214-232c6-6 16-8 22-8s16 2 22 8c14 14 14 32 0 46z" />
<glyph unicode="&#xe037;" glyph-name="cs-zodiac-ox" data-tags="cs-zodiac-ox" d="M996 438l-442-58v152l314 40c16 4 28 20 28 36s-20 28-36 28l-304-40v332c0 20-12 32-32 32-18 0-32-12-32-32v-340l-236-32 36 84c6 16 0 36-16 42s-36 0-42-16l-106-224c-6-16 0-36 16-42 4-4 10-4 12-4 14 0 24 8 30 20l34 70 272 38v-150l-470-60c-16-4-28-20-28-36 2-16 16-28 32-28 0 0 2 0 2 0l458 58v-340c0-20 14-32 32-32 20 0 32 12 32 32v348l452 58c16 4 28 20 28 36-2 18-18 32-34 28z" />
<glyph unicode="&#xe038;" glyph-name="cs-logout" data-tags="cs-logout" d="M154 858h358v102h-460v-1024h460v102h-358zM766 500l-140 128 68 76 286-262-296-274-70 76 168 152h-474v104z" />
<glyph unicode="&#xe039;" glyph-name="cs-zodiac-rat" data-tags="cs-zodiac-rat" d="M650 566l92 352-288-42c-16-2-28-18-28-34s18-30 34-30l192 30-12-52-182-18c-16-4-30-16-26-36 4-16 16-28 32-28 0 0 4 0 4 0l156 16-26-100-370-28-24 70 122 22c16 4 30 20 26 38-4 20-20 30-38 26l-128-22-22 60 258 116c16 6 22 26 16 42s-22 22-38 16l-314-138 96-298zM240 154l-164-86 32 338c4 16-12 32-28 36-20 2-32-14-36-30l-40-454 268 142c16 8 22 28 12 44-8 12-28 20-44 10zM246 406l-70 30c-16 6-36 0-42-16s0-36 16-42l70-30c4-2 10-2 14-2 12 0 26 6 28 18 6 16 0 36-16 42zM246 272l-70 28c-16 8-36 0-42-16s0-34 16-40l70-30c4-2 10-2 14-2 12 0 26 6 28 18 6 16 0 36-16 42zM544 154l-164-86 32 338c4 16-12 32-28 36-20 2-32-14-36-30l-40-454 268 142c16 8 22 28 12 44-8 12-28 20-44 10zM538 406l-70 30c-16 6-36 0-42-16s0-36 16-42l70-30c4-2 10-2 12-2 14 0 26 6 30 18 6 16 0 36-16 42zM538 272l-70 28c-16 8-36 0-42-16s0-34 16-40l70-30c4-2 10-2 12-2 14 0 26 6 30 18 6 16 0 36-16 42zM1002 240c-16 6-36 0-42-16l-80-186c-22 10-58 32-90 74-122 150-114 368-112 372 0 18-12 32-32 32-18 0-32-14-32-32 0-10-10-244 128-414 70-86 148-106 150-106l26-6 102 240c8 16-2 36-18 42z" />
<glyph unicode="&#xe03a;" glyph-name="cs-zodiac-rooster" data-tags="cs-zodiac-rooster" d="M564 372v338l246 20-6-208-80-10c-16-4-32-16-30-36 4-16 16-32 36-28l138 12 8 340-216-20 92 128c10 14 6 36-6 46-14 10-36 6-46-6l-118-164c-2-4-2-6-2-10l-80-6v-468l466 46c-2-52-12-144-38-214-22-56-42-90-58-110l-66 58c-14 12-36 10-46-4-12-12-10-34 4-44l112-92 18 16c8 2 52 40 96 156 42 112 46 266 46 272v36zM368 276c6-8 16-10 22-10s16 2 22 10c14 12 14 32 0 44l-120 128c88 148 112 256 114 262l10 48-384-50c-16-4-28-20-26-40 0-16 16-28 36-24l290 38c-16-42-40-106-86-182l-122 128c-12 12-32 12-44 0-12-14-12-32 0-46l132-138c-52-76-120-160-212-246-12-12-12-32-4-44 8-6 16-10 24-10 6 0 16 4 22 10 92 82 160 170 214 242zM726 556c10 0 20 4 26 14 10 12 6 34-6 44l-94 68c-12 10-34 6-44-6-10-14-6-36 6-46l94-66c6-4 12-8 18-8zM844 234c-2 16-18 28-34 28l-490-58c-16-2-28-18-28-34 2-16 16-30 32-30 0 0 2 0 2 0l490 58c20 4 32 20 28 36z" />
<glyph unicode="&#xe03b;" glyph-name="cs-zodiac-sheep" data-tags="cs-zodiac-sheep" d="M934 400l-402-38v106l226 22c16 2 32 16 30 34-4 20-16 32-36 30l-220-20v116l226 22c16 4 32 16 30 36-4 18-16 28-36 28l-486-48c-20 0-32-16-30-32 0-16 16-28 32-28 0 0 4 0 4 0l196 18v-118l-202-20c-16-2-32-16-30-34 0-16 16-30 32-30 0 0 4 0 4 0l196 20v-106l-384-38c-16-4-32-16-30-36 0-16 16-28 32-28 0 0 4 0 4 0l378 36v-330c0-20 12-32 32-32 18 0 32 12 32 32v336l408 38c16 4 32 16 30 36-4 18-16 28-36 28zM560 752c6-4 12-6 16-6 10 0 20 6 26 16l102 154c10 12 6 34-10 44s-34 6-44-10l-102-154c-8-16-4-34 12-44zM406 732c6-2 14-6 20-6 10 0 18 4 26 14 8 12 8 34-8 44l-80 64c-12 10-34 10-44-6-10-14-10-36 6-46z" />
<glyph unicode="&#xe03c;" glyph-name="cs-zodiac-snake" data-tags="cs-zodiac-snake" d="M618 902l146-92c8-4 14-6 16-6 10 0 24 6 26 16 10 16 6 34-10 44l-146 92c-14 10-36 4-42-8-10-16-6-36 10-46zM412 324c-6 16-22 24-40 22-16-6-26-22-24-42l20-60-128-52 6 172 164 40 28 268-178-44 8 230c0 18-12 32-32 32-16 0-32-14-32-32l-8-250-158-38v-256l148 38-6-186-168-66c-16-8-24-26-16-42 8-14 16-20 30-20 2 0 10 0 12 4l352 144 10-32c4-14 16-22 32-22 4 0 6 0 10 0 16 6 26 22 22 40zM364 588l-12-134-102-22 6 132zM100 396v126l92 26-4-128zM886 580c-6-16 4-36 20-42s34 2 42 18l64 186-484-54-54-148c-6-16 2-34 18-40 4 0 8-4 10-4 14 0 26 10 30 22l40 110 346 38zM998 230c-18 0-32-12-32-32 0-128-108-198-186-198-22 0-50 6-76 28-22 24-32 56-32 100 0 26 0 60 0 96l262 182c16 10 20 30 6 46-8 16-28 18-44 6l-224-158c4 78 4 144 4 148 0 20-14 32-32 32-20 0-32-12-32-32 0 0-4-106-8-202-2-6-2-12 0-16 0-38 0-76 0-106 0-60 20-108 52-144 32-32 74-48 122-48 122 0 250 106 250 264 2 18-14 34-30 34z" />
<glyph unicode="&#xe03d;" glyph-name="cs-zodiac-tiger" data-tags="cs-zodiac-tiger" d="M522 588c0-2 0-2 0 0 0-6 0-50 0-96l-132-28c-16-4-28-22-22-38 4-16 16-26 32-26 4 0 6 0 6 0l118 28c4-34 8-80 42-108 20-16 46-26 78-26 2 0 8 0 12 0 84 6 204 20 204 20l30 2v116c0 20-14 32-32 32-20 0-32-12-32-32v-60c-42-4-118-14-176-16-20 0-36 0-46 8-16 14-16 46-18 74v4l156 34c16 4 30 24 22 40-6 16-22 28-38 22l-144-36c0 42 0 80 0 80 0 6 0 10-2 14l242 44v-52c0-18 14-32 32-32 20 0 32 14 32 32v128l-634-114 4-30c0 0 10-112-20-274-40-234-178-298-184-302-16-6-24-24-16-40 2-14 16-20 28-20 4 0 10 0 12 4 8 2 176 76 224 344 24 126 24 222 24 266zM992 188c0 20-16 32-32 32-20 0-32-16-32-32 0 0 4-98-48-152-20-20-44-30-74-30-48 0-82 14-98 38-32 48-10 138 0 168l18 50-226-26v-28c0-28-8-112-52-160-22-26-54-36-92-36-20 0-32-12-32-32 0-18 12-32 32-32 56 0 102 20 136 56 52 54 64 134 68 176l70 8c-10-48-18-124 20-178 28-42 80-64 146-64 0 0 4 0 4 0 48 0 90 16 122 50 74 64 70 186 70 192zM550 662c20 0 32 14 32 32v64l222 38c16 4 28 20 24 40-2 16-18 28-38 24l-210-34v102c0 20-14 32-32 32-16 0-32-12-32-32v-234c2-16 16-32 34-32z" />
<glyph unicode="&#xe03e;" glyph-name="cs-collapse-2" data-tags="cs-collapse-2" d="M266 340l80 82h-218v52h218l-80 82 34 40 148-148-148-148zM752 556l-80-82h218v-52h-218l80-82-36-40-146 148 146 148z" />
<glyph unicode="&#xe03f;" glyph-name="cs-settings" data-tags="cs-settings" d="M268 110l104-54 56 80 28-4c40-8 80-8 120 0l26 6 60-78 102 56-36 92 18 20c20 22 36 44 50 70s24 54 30 84l6 28 96 22-12 116-100 4-12 24c-14 36-36 68-64 96l-18 20 34 94-102 54-58-82-28 4c-38 8-80 8-118 0l-28-6-60 80-100-56 36-92-20-20c-20-22-36-46-50-70-14-28-24-56-30-84l-6-28-96-22 12-116 98-4 12-26c16-36 38-68 64-96l20-20zM398-56l-238 126 42 112c-20 24-38 50-52 78l-120 2-28 268 118 28c8 28 18 54 32 80 12 24 28 46 44 68l-44 112 236 132 72-98c32 4 64 4 96 0l70 100 238-126-42-114c20-24 36-48 50-74l122-4 28-268-118-28c-8-28-18-56-32-82-12-22-28-46-44-66l44-114-234-130-72 96c-34-4-66-4-98 0zM512 588c-52 0-100-28-124-74-18-34-20-72-10-108 12-34 36-64 68-82 22-10 44-16 66-16 52 0 100 28 124 74 36 68 10 154-58 190-20 10-42 16-66 16M512 236c-34 0-68 8-98 24-50 28-88 72-104 126s-12 110 14 160c38 70 110 114 188 114 34 0 68-8 100-24 102-56 142-184 88-288-38-68-110-112-188-112" />
<glyph unicode="&#xe040;" glyph-name="cs-stylebar-colour-text" data-tags="cs-stylebar-colour-text" d="M406 400h202l-106 278zM64 896v-896h896v896zM700 144l-70 192h-246l-64-192h-86l226 608h88l242-608z" />
<glyph unicode="&#xe041;" glyph-name="cs-tick" data-tags="cs-tick" d="M174 452l-72-74 266-264 568 568-72 74-496-496-194 192" />
<glyph unicode="&#xe042;" glyph-name="cs-view-list" data-tags="cs-view-list" d="M0 704h152v102h-152zM256 704h768v102h-768zM256 396h768v104h-768zM256 90h768v102h-768zM0 396h152v104h-152zM0 90h152v102h-152z" />
<glyph unicode="&#xe043;" glyph-name="cs-zodiac-pig" data-tags="cs-zodiac-pig" d="M986 634l-196-16c54 82 90 146 94 154 8 16 2 34-14 44s-34 4-44-12c0-4-48-88-122-192l-54-8-4 106 78 10c16 4 28 20 28 36-4 16-20 28-36 28l-72-10-4 154c0 20-16 32-32 32-20 0-32-16-32-32l6-164-64-6c-16-2-28-18-28-34 2-16 16-30 32-30 0 0 2 0 2 0l62 6 2-102-216-22c-20 0-32-16-30-36 0-16 16-28 32-28 0 0 4 0 4 0l282 26c-84-112-192-234-304-298 2 20 2 36 6 54 6 126-46 294-90 414l140 130c14 14 14 32 4 46-12 12-32 12-44 2l-126-114c-16 40-28 70-32 72-10 16-28 24-44 16-16-6-22-24-16-40 0 0 18-40 38-96l-106-100c-12-12-12-32-2-44 6-8 16-10 22-10s16 2 22 10l90 80c18-52 38-110 54-168l-256-236c-16-12-16-32-4-44 8-8 16-10 24-10 6 0 16 2 22 10l230 210c6-42 12-82 10-122-6-102-38-208-62-262l-56 42c-14 10-36 6-46-6-10-14-6-36 6-46l122-92 16 36c4 2 38 86 62 192 60 28 124 70 182 124v-266l332-76v428l-258-12c54 60 104 124 150 186l246 22c20 0 32 16 28 34-2 16-18 30-34 30zM790 26l-204 48v118h146c20 0 32 12 32 32s-12 32-32 32h-146v42l204 10z" />
<glyph unicode="&#xe044;" glyph-name="cs-beginning" data-tags="cs-beginning" d="M746 122l-342 342 342 342 74-72-272-270 272-270zM384 806h-102v-666h102z" />
<glyph unicode="&#xe045;" glyph-name="cs-end" data-tags="cs-end" d="M278 122l342 342-342 342-74-72 272-270-272-270zM640 806h102v-666h-102z" />
<glyph unicode="&#xe046;" glyph-name="cs-previous" data-tags="cs-previous" d="M722 734l-72 72-342-342 342-342 72 72-270 270 270 270" />
<glyph unicode="&#xe047;" glyph-name="cs-next" data-tags="cs-next" d="M308 194l72-72 342 342-342 342-72-72 270-270-270-270" />
<glyph unicode="&#xe048;" glyph-name="cs-sort-up" data-tags="cs-sort-up" d="M766 238l72 72-342 342-342-342 72-72 270 270 270-270" />
<glyph unicode="&#xe049;" glyph-name="cs-dropdown-arrow-down" data-tags="cs-dropdown-arrow-down" d="M226 652l-72-72 342-342 342 342-72 72-270-270-270 270" />
<glyph unicode="&#xe04a;" glyph-name="cs-alert-circle" data-tags="cs-alert-circle" d="M460 792h104v-482h-104zM512 856c-224 0-408-184-408-408s184-408 408-408c224 0 408 184 408 408s-184 408-408 408M512-62c-282 0-510 228-510 510s228 510 510 510c282 0 510-228 510-510s-228-510-510-510M460 212h104v-104h-104z" />
<glyph unicode="&#xe04b;" glyph-name="cs-move-large" data-tags="cs-move-large" d="M868 604l-48-44 82-80h-294v-64h294l-82-80 48-44 156 156zM412 480h-290l82 80-48 44-156-156 156-156 48 44-82 80h290zM624 756l44 48-156 156-156-156 44-48 80 82v-294h64v294zM544 58v294h-64v-294l-80 82-44-48 156-156 156 156-44 48z" />
<glyph unicode="&#xe04c;" glyph-name="cs-forecast-up" data-tags="cs-forecast-up" d="M812 698v-352h102v512h-564l4-102h370l-622-632 74-74 636 648" />
<glyph unicode="&#xe04d;" glyph-name="cd-trend-down" data-tags="cd-trend-down" d="M768 346l-72 72-132-134v472h-104v-472l-132 134-72-72 256-256 256 256" />
<glyph unicode="&#xe04e;" glyph-name="cd-trend-up" data-tags="cd-trend-up" d="M256 500l72-72 132 132v-470h104v470l132-132 72 72-256 256-256-256" />
<glyph unicode="&#xe04f;" glyph-name="cta-arrow" data-tags="cta-arrow" d="M564 806l-72-72 236-234h-626v-104h626l-236-234 72-72 358 358-358 358" />
<glyph unicode="&#xe050;" glyph-name="cs-expand-2" data-tags="cs-expand-2" d="M278 556l-80-82h218v-52h-218l80-82-34-40-148 148 148 148zM740 340l80 82h-218v52h218l-80 82 34 40 148-148-148-148z" />
<glyph unicode="&#xe051;" glyph-name="cs-order-execution" data-tags="cs-order-execution" d="M838 612l48-48-304-298-118 118 44 44 74-70zM540 630l48-48-304-298-166 164 48 44 118-114zM28 128h960v640h-960zM932 192h-842v512h842z" />
<glyph unicode="&#xe052;" glyph-name="cs-transaction" data-tags="cs-transaction" d="M276 484l-72-72v62c0 172 142 310 312 310 88 0 172-38 232-106l42 38c-70 80-170 126-274 126-202-4-368-166-368-372v-64l-74 74-38-38 98-100 38-38 142 140zM896 572l-38 40-142-142 40-38 70 70v-60c0-174-142-310-310-310-90 0-174 38-234 104l-42-38c70-80 170-124 276-124 200 0 368 162 368 368v64l72-74 40 38z" />
<glyph unicode="&#xe053;" glyph-name="cs-heart" data-tags="cs-heart" d="M170 320l340-256 334 248c48 42 76 100 76 164 0 120-98 216-216 216-52 0-114-24-154-58l-38-32-38 30c-50 42-96 60-154 60-120 0-218-96-218-216 0-58 24-114 66-154zM510-64l-412 310-18 18c-50 56-80 132-80 212 0 176 144 320 320 320 70 0 136-24 192-64 54 40 120 64 192 64 176 0 318-144 318-320 0-96-42-184-116-246l-6-4z" />
<glyph unicode="&#xe054;" glyph-name="cs-preview-off" data-tags="cs-preview-off" d="M512 354c-60 0-108 48-108 110s48 110 108 110c60 0 108-48 108-110h92c0 112-90 202-200 202s-200-90-200-202c0-112 90-202 200-202zM894 442c-28-32-58-64-92-92-96-82-194-130-290-130s-194 48-290 130c-34 28-64 60-92 92-4 4-8 10-12 14 4 4 8 8 12 12 28 32 58 64 92 94 96 80 194 128 290 128s194-48 290-128c34-30 64-62 92-94 4-4 8-8 12-12-4-4-8-10-12-14zM1000 482c-6 10-18 26-36 48-32 34-64 68-102 100-16 16-34 28-50 42l204 200-72 72-222-216c-68 34-138 54-210 54-122 0-240-56-350-152-38-32-70-66-102-100-16-22-30-38-36-48l-20-26 20-28c6-10 20-26 36-48 32-34 64-68 102-100 20-18 40-32 60-48l-214-208 72-72 232 226c64-32 132-50 200-50 122 0 240 56 350 152 38 32 70 66 102 100 18 22 30 38 36 48l20 28z" />
<glyph unicode="&#xe055;" glyph-name="cs-shield-off" data-tags="cs-shield-off" d="M146 908c-16 0-28-12-30-28-26-198-16-360 42-504 58-142 162-262 316-382 12-10 28-10 40 0 156 120 258 240 314 384 58 142 68 304 46 502-2 24-28 36-50 24-120-72-232-70-308-4-12 12-30 12-44 0-74-66-186-68-308 4-6 4-12 6-18 4zM494 776c70-52 164-46 258-4 14-142 6-256-34-356s-114-188-224-276c-112 88-186 176-228 276-40 98-46 214-32 356 94-44 188-48 260 4z" />
<glyph unicode="&#xe056;" glyph-name="cs-play" data-tags="cs-play" d="M512 860c-226 0-412-186-412-412s186-412 412-412c228 0 412 186 412 412s-184 412-412 412M512-50c-274 0-498 224-498 498s224 498 498 498c274 0 498-224 498-498s-224-498-498-498M434 580v-264l226 132zM346 166v564l488-282z" />
<glyph unicode="&#xe057;" glyph-name="cs-group" data-tags="cs-group" d="M758 238c2-10 4-22 4-32v-270h-84v270c0 72-58 130-126 130h-76c-70 0-126-58-126-130v-270h-84v270c0 8 0 18 2 28-20 20-46 32-74 32-62 0-112-54-112-120v-162h-80v162c0 112 86 204 192 204 38 0 72-12 102-32 36 62 104 106 180 106h76c74 0 140-42 178-104 28 20 64 32 100 32 106 0 192-92 192-204v-162h-80v162c0 66-50 120-112 120-26 0-52-12-72-30zM506 666c-44 0-80-36-80-82s36-82 80-82c44 0 80 36 80 82s-36 82-80 82M506 414c-90 0-164 76-164 170s74 170 164 170c90 0 162-76 162-170s-72-170-162-170M188 530c-28 0-50-22-50-50s22-50 50-50c26 0 48 22 48 50s-22 50-48 50M188 346c-72 0-130 60-130 134s58 134 130 134c70 0 128-60 128-134s-58-134-128-134M788 480c0-28 22-50 48-50 28 0 50 22 50 50s-22 50-50 50c-26 0-48-22-48-50M708 480c0 74 58 134 128 134 72 0 130-60 130-134s-58-134-130-134c-70 0-128 60-128 134" />
<glyph unicode="&#xe058;" glyph-name="cta-arrow-back" data-tags="cta-arrow-back" d="M460 90l72 72-236 234h626v104h-626l236 234-72 72-358-358z" />
<glyph unicode="&#xe059;" glyph-name="cs-shield-on" data-tags="cs-shield-on" d="M146 908c-16 0-28-12-30-28-26-198-16-360 42-504 58-142 162-262 316-382 12-10 28-10 40 0 156 120 258 240 314 384 58 142 68 304 46 502-2 24-28 36-50 24-120-72-232-70-308-4-12 12-30 12-44 0-74-66-186-68-308 4-6 4-12 6-18 4z" />
<glyph unicode="&#xe05a;" glyph-name="cs-pin-on" data-tags="cs-pin-on" d="M564 276v-288h-104v288h-306l204 272v208l-46 152h408l-44-152v-208l194-272zM32 934l-8 10v8l2 4h-12l2-4v-8l-8-10h12z" />
<glyph unicode="&#xe05b;" glyph-name="cs-logo" data-tags="cs-logo" d="M862 252c52-16 104-34 162-64-140 204-388 424-634 568 64-56 166-178 194-306 98-64 192-132 278-198zM832 270c-116 34-214 36-286 28 26 56 30 112 18 168-178 114-376 216-564 290 138-84 292-330 356-594 136 36 346 62 620-22-46 44-94 86-144 130z" />
<glyph unicode="&#xe05c;" glyph-name="cs-fx" data-tags="cs-fx" d="M1040 90l-272 154v-308zM410 140h358v-102h-358zM614 294h-342v102l-272-152 272-154v102h342zM154 806v-256h716v256zM52 908h920v-460h-920zM436 756h152v-154h-152zM154 806h102v-50h-102zM154 602h102v-52h-102zM768 602h102v-52h-102zM768 806h102v-50h-102z" />
<glyph unicode="&#xe05d;" glyph-name="cs-general-account" data-tags="cs-general-account" d="M308 652c-86 0-154 70-154 154 0 86 68 154 154 154 84 0 152-68 152-154 0-84-68-154-152-154zM308 756c28 0 50 22 50 50s-22 52-50 52c-30 0-52-24-52-52s22-50 52-50zM154 84v-102h-154v364c0 170 138 306 308 306 110 0 210-58 264-152l-88-52c-36 64-102 102-176 102-114 0-206-92-206-204v-262zM308 294v-256h614v256zM204 396h820v-460h-820zM538 244h154v-154h-154zM308 294h102v-50h-102zM308 90h102v-52h-102zM820 90h102v-52h-102zM820 294h102v-50h-102z" />
<glyph unicode="&#xe05e;" glyph-name="cs-current-account-1" data-tags="cs-current-account-1" d="M512-64c-282 0-512 230-512 512s230 512 512 512c282 0 512-230 512-512s-230-512-512-512zM512 38c226 0 410 184 410 410s-184 410-410 410c-226 0-410-184-410-410s184-410 410-410zM502 696l94 154c22-6 38-10 50-14 10-4 26-10 46-20l-60-100 60-62v-60l28 8 54 22 72 60c12-18 22-32 28-44 6-10 14-26 20-46l-66-60-8-2-66-26-56-16h-88l-22 72v20h-30l-28 68v12zM360 722l-62 76c18 10 32 18 44 24 12 4 28 10 50 18l70-80v-64l-20-36-6-8-10-12 26-26 32-54v-62l18-2 20-64 2-4 4-16 54-20 10-2 86-48 6-4 44-34v-50l-18-60-22-16-16-18-4-6-50-42h-24l-12-8-4-4v-56c-22-4-38-6-50-6-10-2-28 0-52 2v94l18 26 26 26 42 28h18l18 16 16 18 6 6-74 44-108 34-14 72-38 10-38 82 34 26v10l-10 18-50 50v74l34 40zM102 426c0 32 0 60 4 78 2 20 8 46 18 78l22 22 86-36 38-58v-64l38-98-16-22-12-18-10-18-20-32v-16l-42-70c-12 14-24 28-34 44-12 16-20 32-28 48v8l22 86h12l-28 54 16 40v28l-2 4z" />
<glyph unicode="&#xe05f;" glyph-name="cs-bulb" data-tags="cs-bulb" d="M768 240l-2-48h-510v52c0 34-6 56-16 68 2-2-42 38-60 60-48 56-78 114-78 178 0 226 184 410 410 410s410-184 410-410c0-62-28-118-74-174-16-20-56-58-56-60-14-20-22-44-24-76zM672 294c8 30 20 56 36 80 6 10 50 54 62 68 32 38 50 74 50 108 0 170-138 308-308 308s-308-138-308-308c0-36 20-72 52-110 16-18 58-58 60-60 20-22 34-52 38-86zM410 652h204v-102h-204zM256 140h512v-102h-512zM358 38h308v-102h-308z" />
<glyph unicode="&#xe060;" glyph-name="cs-key" data-tags="cs-key" d="M404 500h620v-104h-620c-24-88-104-152-200-152-112 0-204 90-204 204s92 204 204 204c96 0 176-64 200-152zM204 346c58 0 104 46 104 102s-46 102-104 102c-56 0-102-46-102-102s46-102 102-102zM922 396h102v-152h-102zM716 396h104v-102h-104z" />
<glyph unicode="&#xe061;" glyph-name="cs-report" data-tags="cs-report" d="M204 602h308v102h-308zM204 192h256v102h-256zM204 396h256v104h-256zM614 806v-306l102-48v456h-716v-920h488v102h-386v716zM564-12v460l398-230z" />
<glyph unicode="&#xe062;" glyph-name="cs-cancelled-by-system" data-tags="cs-cancelled-by-system" d="M102 756v-462h820v462zM564 192v-154h256v-102h-616v102h256v154h-460v666h1024v-666zM516 578l96 96 64-64-96-96 96-94-64-64-96 96-94-96-64 64 96 94-96 96 64 64z" />
<glyph unicode="&#xe063;" glyph-name="cs-enlarge" data-tags="cs-enlarge" d="M410-64h-412v410l154-156 258 258 104-104-256-256zM614 960h412v-410l-154 156-256-258-104 104 256 256z" />
<glyph unicode="&#xe064;" glyph-name="cs-drag" data-tags="cs-drag" d="M0 858h1024v-102h-1024zM0 140h1024v-102h-1024zM0 500h1024v-104h-1024z" />
<glyph unicode="&#xe065;" glyph-name="cs-reject-file" data-tags="cs-reject-file" d="M0 960v-1024h820v716l-308 308zM102 858h308v-358h306v-104h104v-460h-308v102h-410zM512 786l186-184h-186zM886 146l126-126-72-72-126 126-128-126-72 72 128 126-128 128 72 72 128-128 126 128 72-72z" />
<glyph unicode="&#xe066;" glyph-name="cs-reversed-entry" data-tags="cs-reversed-entry" d="M102 756h206v102h-308v-820h308v102h-206zM364 500h558v-462h-308v102h206v256h-458l106-94-68-76-244 220h-2v2h2l244 220 68-76z" />
<glyph unicode="&#xe067;" glyph-name="cs-moon" data-tags="cs-moon" d="M496 954c-86-90-138-212-138-346 0-280 228-508 506-508 6 0 12 0 16 0-92-98-222-158-368-158-280 0-506 226-506 506 0 274 218 498 490 506z" />
<glyph unicode="&#xe068;" glyph-name="cs-screenshare" data-tags="cs-screenshare" d="M4 50v620h824v-620zM94 140h644v438h-644zM1020 226h-130v92h40v438h-692v-38h-90v128h872z" />
<glyph unicode="&#xe069;" glyph-name="cs-switch-contract" data-tags="cs-switch-contract" d="M678 284h176v88l178-132-178-132v88h-176zM814 110v-88h-176v-88l-178 132 178 130v-86zM308 730c0 70 56 128 128 128 70 0 128-58 128-128 0-72-58-128-128-128-72 0-128 56-128 128zM512 524c8 0 16 0 24 0 76 38 130 114 130 206 0 126-104 230-230 230-128 0-232-104-232-230 0-92 54-168 130-206 8 0 16 0 24 0zM562 498c-8 0-16 2-24 2h-154c-8 0-16-2-24-2-202-12-360-178-360-382v-180h102v180c0 154 126 280 282 280h154c54 0 102-14 146-40l62 80c-54 36-116 58-184 62" />
<glyph unicode="&#xe06a;" glyph-name="cs-trade-cancellation-rejected" data-tags="cs-trade-cancellation-rejected" d="M176 104h672l-336 588zM1018 4h-1014l508 888zM512 342l80 80 52-52-80-80 80-80-52-54-80 80-80-80-54 54 80 80-80 80 54 52z" />
<glyph unicode="&#xe06b;" glyph-name="cs-trend-green-up" data-tags="cs-trend-green-up" d="M328 376l132 134v-574h104v574l132-134 72 72-256 256-256-256z" />
<glyph unicode="&#xe06c;" glyph-name="cs-trend-red-down" data-tags="cs-trend-red-down" d="M328 264l132-134v574h104v-574l132 134 72-72-256-256-256 256z" />
<glyph unicode="&#xe06d;" glyph-name="forecast" data-tags="forecast" d="M848 422l-266-266 60-62 384 384-378 380-62-62 270-272h-856v-102h848" />
<glyph unicode="&#xe06e;" glyph-name="cs-pagination-first" data-tags="cs-pagination-first" d="M358 704h-102v-768h102zM830 632l-74 72-380-388 380-380 74 74-308 308z" />
<glyph unicode="&#xe06f;" glyph-name="cs-pagination-last" data-tags="cs-pagination-last" d="M716 704h104v-768h-104zM246 632l74 72 380-388-380-380-74 74 308 308z" />
<glyph unicode="&#xe070;" glyph-name="cs-pagination-next" data-tags="cs-pagination-next" d="M308 632l74 72 378-388-380-380-72 74 308 308z" />
<glyph unicode="&#xe071;" glyph-name="cs-pagination-previous" data-tags="cs-pagination-previous" d="M760 632l-74 72-378-388 380-380 72 74-308 308z" />
<glyph unicode="&#xe072;" glyph-name="cs-toggle-off" data-tags="cs-toggle-off" d="M768 576h-512c-144 0-256-112-256-256s112-256 256-256h512c144 0 256 112 256 256s-112 256-256 256zM16 320c0 134 106 240 240 240s240-106 240-240c0-134-106-240-240-240s-240 106-240 240zM768 80h-420c92 36 164 132 164 240s-72 204-164 240h420c134 0 240-106 240-240s-106-240-240-240z" />
<glyph unicode="&#xe073;" glyph-name="cs-portfolio-account" data-tags="cs-portfolio-account" d="M512 960c-282 0-512-230-512-512s230-512 512-512c282 0 512 230 512 512s-230 512-512 512zM108 396h384l246-292c-68-40-144-66-226-66-210 0-378 160-404 358zM814 172l-276 328h-430c26 198 194 358 404 358 226 0 410-184 410-410 0-108-42-204-108-276z" />
<glyph unicode="&#xe074;" glyph-name="cs-pension-account" data-tags="cs-pension-account" d="M0 448h308v-102h-308zM358 704h308v-102h-308zM716 960h308v-102h-308zM0 38h308v-102h-308zM358 38h308v-102h-308zM716 38h308v-102h-308zM52 346h204v-308h-204zM410 602h204v-564h-204zM768 858h204v-820h-204z" />
<glyph unicode="&#xe075;" glyph-name="cs-mortgage-account" data-tags="cs-mortgage-account" d="M820 596l178-178-72-72-106 108v-314h-104v768l104-102 178-174-72-72-106 104zM204 448h104v-102h-104zM358 448h102v-102h-102zM614 550l-282 282-280-282v-410h102v370l174 178 184-184v-364h102zM0 38h1024v-102h-1024z" />
<glyph unicode="&#xe076;" glyph-name="cs-bottom-navigation" data-tags="cs-bottom-navigation" d="M460 346h104v-410h-104zM564 704h260l66 76-66 78h-260zM460 602h-260l-66-78 66-76h260zM564 602v-256h-410l-154 178 154 180h306v256h410l154-180-154-178z" />
<glyph unicode="&#xe077;" glyph-name="cs-toggle-on" data-tags="cs-toggle-on" d="M768 576h-512c-144 0-256-112-256-256s112-256 256-256h512c144 0 256 112 256 256s-112 256-256 256zM768 80c-134 0-240 106-240 240s106 240 240 240c134 0 240-106 240-240s-106-240-240-240z" />
<glyph unicode="&#xe078;" glyph-name="cs-safekeeping-account" data-tags="cs-safekeeping-account" d="M102 858v-820h820v820zM0 960h1024v-1024h-1024zM710 500h110v-104h-110c-22-88-102-152-198-152-114 0-204 90-204 204s90 204 204 204c96 0 176-64 198-152zM600 500c-18 30-50 50-88 50-56 0-102-46-102-102s46-102 102-102c38 0 70 20 88 50h-88v104zM204 652h-102v104h102zM204 140h-102v104h102z" />
<glyph unicode="&#xe079;" glyph-name="cs-pin-off" data-tags="cs-pin-off" d="M434 236l294 292-208 36-170 172-34 58-144-144 60-32 172-172zM670 362l204-204-72-72-204 204-218-218-48 338-146 146-142 76 290 288 76-138 148-146 330-56z" />
<glyph unicode="&#xe07a;" glyph-name="cs-scheduled-payments" data-tags="cs-scheduled-payments" d="M512 244h154v-154h-154zM712 396v-102h108v-50h102v-154h-102v-52h-462v52h-102v102h-102v-256h870v460zM358 244c-200 0-358 158-358 358s158 358 358 358c200 0 358-158 358-358s-158-358-358-358zM358 346c144 0 256 112 256 256 0 142-112 256-256 256-142 0-256-114-256-256 0-144 114-256 256-256zM410 652h102v-102h-102zM308 806h102v-256h-102z" />
<glyph unicode="&#xe07b;" glyph-name="cs-money-market" data-tags="cs-money-market" d="M518 754l-72-72c-12 12-26 20-40 26-54 18-112-10-132-64-18-54 10-112 64-130l-32-96c-108 36-164 152-128 260 36 106 154 164 260 126 30-10 58-28 80-50zM880 290l-52 88c42 24 70 66 74 116 10 84-52 160-136 168-84 10-160-52-168-136l-102 10c14 140 140 242 280 228 142-14 244-140 228-282-8-80-54-152-124-192zM536-28c-136 0-244 108-244 244 0 134 108 242 244 242 134 0 242-108 242-242 0-136-108-244-242-244zM536 74c76 0 140 64 140 142 0 76-64 140-140 140-78 0-142-64-142-140 0-78 64-142 142-142z" />
<glyph unicode="&#xe07c;" glyph-name="cs-financing-widget" data-tags="cs-financing-widget" d="M256 294v-256h666v102h-256l-64 154zM154 396h516l64-152h290v-308h-870zM0 396h102v-460h-102zM512 244h112l42-104h-154zM308 858v-206h614v206zM204 960h820v-410h-820zM564 806h102v-102h-102zM308 704h102v-52h-102zM820 704h102v-52h-102zM820 858h102v-52h-102zM308 858h102v-52h-102z" />
<glyph unicode="&#xe07d;" glyph-name="cs-credit-card-account" data-tags="cs-credit-card-account" d="M0 244h104v512h716v-4h102v106h-922zM308 550v-410h614v410zM204 652h820v-614h-820zM768 500h102v-104h-102zM308 294h614v-102h-614z" />
<glyph unicode="&#xe07e;" glyph-name="cs-toggle-off-hover" data-tags="cs-toggle-off-hover" d="M768 576h-512c-16 0-36 0-52-6-116-24-204-128-204-250 0-144 112-256 256-256h512c144 0 256 112 256 256s-112 256-256 256zM256 540c122 0 220-98 220-220s-98-220-220-220c-16 0-30 0-46 4-102 22-180 114-180 216 0 108 78 194 180 216 16 4 30 4 46 4zM768 100h-390c82 40 134 122 134 220s-52 180-134 220h390c122 0 220-98 220-220s-98-220-220-220z" />
<glyph unicode="&#xe07f;" glyph-name="cs-saving-account" data-tags="cs-saving-account" d="M802-68h-232l-50 72h-88l-24-72h-200l-16 24-56 86c-66 86-106 152-120 200-40 136-18 314 114 440 48 46 128 72 238 90 44 6 90 10 140 12 18 2 36 2 54 4 8 0 32 0 38 0 30 8 84 30 164 66l72 32v-226l84-100h102v-316h-100l-120-154zM700 34v92l172 220h48v112h-48l-138 164v106c-46-18-80-32-104-38-8-4-12-4-26-4-6 0-32 0-38-2-18 0-34 0-52-2-46-2-90-6-130-12-90-14-156-36-184-62-98-96-116-234-86-338 10-32 44-88 106-168l44-68h70l26 72h212l52-72zM716 500c0-30-22-52-50-52s-52 22-52 52c0 28 24 50 52 50s50-22 50-50zM514 866l-86-56c-24 40-74 58-118 42-40-14-68-50-70-92l-102 6c4 84 60 156 140 184 88 30 186-6 236-84z" />
<glyph unicode="&#xe080;" glyph-name="cs-private-account" data-tags="cs-private-account" d="M154 960v-102c-28 0-52-24-52-52h-102c0 86 68 154 154 154zM0 90h102c0-28 24-52 52-52v-102c-86 0-154 68-154 154zM0 806h102c0-28 24-50 52-50v-104c-86 0-154 70-154 154zM154 960h768v-102h-768zM820 858h102v-102h-102zM154 756h870v-104h-870zM922-64v716h102v-716zM154 38h768v-102h-768zM102 662v-572h-102v702c8-40 22-68 38-88 18-18 40-32 64-42zM666 500v-104c-28 0-52-22-52-50s24-52 52-52v-102c-86 0-154 68-154 154 0 84 68 154 154 154zM666 500h256v-104h-256zM666 294h256v-102h-256z" />
<glyph unicode="&#xe081;" glyph-name="cs-toggle-on-hover" data-tags="cs-toggle-on-hover" d="M768 576h-512c-144 0-256-118-256-256s118-256 256-256h512c144 0 256 118 256 256s-112 256-256 256zM768 94c-122 0-226 104-226 226s104 226 226 226c122 0 226-104 226-226s-104-226-226-226z" />
<glyph unicode="&#xe082;" glyph-name="cs-timer" data-tags="cs-timer" d="M922 448c0-226-184-410-410-410s-410 184-410 410c0 226 184 410 410 410v-410zM512 960c-282 0-512-230-512-512s230-512 512-512c282 0 512 230 512 512s-230 512-512 512z" />
<glyph unicode="&#xe083;" glyph-name="cs-money-bag" data-tags="cs-money-bag" d="M28 922v0M768 70c-16-22-36-32-56-32h-394c-42 0-72 32-72 72 0 10 4 26 10 36l194 332 6 6c20 40 86 46 118 4l82 58c-10 14-26 30-42 40l82 138c10 16 16 36 16 52 0 56-46 108-108 108h-180c-56 0-106-46-106-108 0-20 4-36 14-56l78-134c-20-16-36-30-52-56l-190-338c-14-26-24-52-24-82 0-98 76-174 174-174h388c56 0 114 30 144 76zM424 780h176l4-4-86-154h-12l-82 158c-4-4-4-4 0 0zM962 488c-30 22-60 32-96 32-26 0-46-10-62-26-16-20-30-40-36-72h168l-20-56h-154v-36h140l-22-56h-112c6-26 16-46 30-62 16-14 42-26 62-26 42 0 76 12 102 36v-92c-30-20-66-26-102-26-108 0-168 58-194 176h-56l20 56h36v36h-52l20 56h36c16 60 36 102 72 132 32 26 78 42 128 42 36 0 78-10 124-36z" />
<glyph unicode="&#xe084;" glyph-name="cs-document-confirm" data-tags="cs-document-confirm" d="M394 422l-72-76 266-262 420 420-72 72-348-348-194 194M716 146v-108h-614v820h308v-358h410v152l-308 308h-512v-1024h820v210zM512 786l184-184h-184z" />
<glyph unicode="&#xe085;" glyph-name="cs-document-edit" data-tags="cs-document-edit" d="M230 172v236l558 552 236-236-564-552zM788 816l-456-456v-92h92l456 456zM716 346v-308h-614v820h508v102h-610v-1024h820v410z" />
<glyph unicode="&#xe086;" glyph-name="cs-hourglass" data-tags="cs-hourglass" d="M102 960h820v-102h-820zM102 38h820v-102h-820zM204 858v-256l220-154-220-154v-256h104v206l204 142 204-142v-206h104v256l-220 154 220 154v256h-104v-206h-408v206z" />
<glyph unicode="&#xe087;" glyph-name="cs-partially-online" data-tags="cs-partially-online" d="M670 442c16-30 26-66 26-102h-112c0 32-6 62-10 92 4 6 14 6 20 10h-276v26c-16 6-36 6-52 10 16 46 30 82 56 108v102c-184-30-322-184-322-378 0-210 174-384 384-384s384 174 384 384c0 46-10 92-26 132zM246 596c-20-26-30-56-42-92-20 10-36 26-40 36 20 20 52 42 82 56zM118 488c16-20 40-34 72-50-6-30-10-62-10-92h-114c6 50 26 102 52 142zM66 280h114c0-36 4-72 14-104-30-10-56-24-72-40-30 40-50 92-56 144zM164 84c4 10 20 20 46 32 10-36 26-68 46-92-36 14-66 34-92 60zM354 18c-32 16-58 56-78 112 20 6 46 10 78 10zM354 202c-32 0-68-4-98-10-6 26-10 56-10 88h108zM354 346h-108c0 26 4 50 4 72 32-10 68-16 104-16zM414 396c36 0 72 6 104 16 4-20 4-46 4-66h-108zM414 18v122c32 0 58-4 78-4-16-62-46-102-78-118zM414 208v72h108c0-32-4-58-10-82-26 4-62 4-98 10zM512 24c20 24 36 60 46 96 26-10 42-20 52-30-26-32-62-52-98-66zM650 140c-16 16-40 32-76 42 4 30 10 62 10 98h112c0-52-20-98-46-140zM384 510h646v450h-646zM512 894h384l-190-154zM446 872l260-194 256 194v-296h-516z" />
<glyph unicode="&#xe088;" glyph-name="editorial-umbrella" data-tags="editorial-umbrella" d="M896 576c0 212-172 384-384 384s-384-172-384-384h352v-512c0-36-28-64-64-64s-64 28-64 64v64h-64v-64c0-70 58-128 128-128s128 58 128 128v512zM512 896c154 0 284-110 314-256h-628c30 146 160 256 314 256z" />
<glyph unicode="&#xe089;" glyph-name="editorial-stack" data-tags="editorial-stack" d="M356 960v-150h-114v-156h-114v-718h548v150h106v156h114v718zM612 306v-306h-420v590h208v-214h212zM464 586l144-146h-144zM718 306v-156h-42v312l-188 192h-182v92h412zM832 306h-50v504h-362v86h412zM256 312h284v-64h-284zM256 184h178v-64h-178z" />
<glyph unicode="&#xe08a;" glyph-name="editorial-scales" data-tags="editorial-scales" d="M896 414c-2 4-4 20-4 20l-124 526-52-14-460-114-124-524c0 0-2-16-4-20-2-20 2-34 6-48 18-64 80-112 154-114 72 2 134 48 154 114 4 14 8 28 6 48 0 4-4 20-4 20l-112 478 144 36v-822h-156v-64h384v64h-164v838l144 36-104-440c0 0-4-16-4-20-2-20 2-34 6-48 20-64 82-112 154-114 74 2 136 50 154 114 4 14 8 28 6 48zM288 190c-42 2-82 28-92 66h186c-12-38-50-64-94-66zM380 320h-184c2 2 2 2 2 4 32 134 76 290 90 344 14-54 58-210 90-344 0-2 0-2 2-4zM736 794c14-54 58-208 90-344 0 0 0-2 0-2h-180c0 0 0 2 0 2 32 136 76 290 90 344zM736 316c-46 2-84 30-94 68h188c-10-38-50-66-94-68z" />
<glyph unicode="&#xe08b;" glyph-name="editorial-pie-chart-2" data-tags="editorial-pie-chart-2" d="M128 0h768v-64h-768zM896 512c0 130-70 244-176 304l-176-304zM740 724c42-40 72-92 84-148h-170zM688 912c-52 30-112 48-176 48s-124-18-176-48l176-304zM512 896c28 0 58-4 84-12l-84-148-84 148c26 8 56 12 84 12zM320 780c-114-66-192-190-192-332 0-212 172-384 384-384s384 172 384 384h-384zM512 128c-176 0-320 144-320 320 0 92 40 180 108 240l156-272 20-32h350c-30-146-160-256-314-256z" />
<glyph unicode="&#xe08c;" glyph-name="editorial-growth" data-tags="editorial-growth" d="M578 838h38l-68 122-70-120h40c-14-162-76-288-186-372-92-72-186-88-204-88v-60c30 0 136 18 242 100 86 66 190 192 208 418zM656 960v-512h-176v-128h-176v-192h-176v-192h768v1024zM304 0h-112v64h112zM480 0h-112v256h112zM656 0h-112v384h112zM832 0h-112v896h112z" />
<glyph unicode="&#xe08d;" glyph-name="editorial-decline" data-tags="editorial-decline" d="M128 0v960h64v-116l194-402 168 338 266-570-48-36-218 462-174-350-188 422v-708h704v-64h-768z" />
<glyph unicode="&#xe08e;" glyph-name="editorial-calendar" data-tags="editorial-calendar" d="M704 832v96c0 18-14 32-32 32s-32-14-32-32v-96h-256v96c0 18-14 32-32 32s-32-14-32-32v-96h-192v-896h768v896zM832 0h-640v512h640zM832 576h-640v192h128v-96c0-18 14-32 32-32s32 14 32 32v96h256v-96c0-18 14-32 32-32s32 14 32 32v96h128z" />
<glyph unicode="&#xe08f;" glyph-name="editorial-bills" data-tags="editorial-bills" d="M384 960v-100h-256v-924h544v96h224v928zM608 796v-222c-50 58-124 96-208 96-82 0-156-36-206-94h-2v220zM672 698c92-22 160-104 160-202s-68-180-160-202zM208 320c-10 24-16 50-16 78 0 42 12 82 34 114 50-4 92-44 92-96s-42-94-94-96zM380 410c4-50 44-90 96-90 54 0 96 42 96 96s-42 96-96 96c-52 0-92-40-96-90-2 66-44 122-104 144 36 26 78 40 124 40 114 0 208-94 208-208s-94-208-208-208c-60 0-116 26-154 68 74 12 132 76 134 152zM444 416c0 18 14 32 32 32s32-14 32-32c0-18-14-32-32-32s-32 14-32 32zM192 0v224c50-60 124-98 208-98s158 38 208 98v-224zM832 96h-160v132c64 12 120 46 160 92zM672 764v96h-224v36h384v-224c-40 46-96 80-160 92zM512 768h64v-64h-64zM736 864h64v-64h-64zM224 96h64v-64h-64z" />
<glyph unicode="&#xe090;" glyph-name="editorial-analyse" data-tags="editorial-analyse" d="M902-30l-208 344c90 66 146 170 146 288 0 196-158 356-356 356-196 0-356-160-356-356s160-356 356-356c56 0 108 12 156 36l206-344zM192 602c0 160 132 292 292 292 162 0 292-132 292-292s-130-292-292-292c-160 0-292 132-292 292zM578 622l-52 54-64-90-94 124-70-264 48-12 44 162 74-96 68 98 70-70 68 228-48 16z" />
<glyph unicode="&#xe091;" glyph-name="cs-like" data-tags="cs-like" d="M666 602h358v-542l-134-124h-488l-198 62v584l114 56 142 322h232zM922 500h-358v358h-52l-112-294-96-46v-444l114-36h432l72 66zM0 38h102v512h-102z" />
<glyph unicode="&#xe092;" glyph-name="setup-icon" data-tags="setup-icon" d="M810 918c24 0 44-8 60-26 18-16 26-36 26-60v-768c0-24-8-44-26-60-16-18-36-26-60-26h-426c-24 0-44 8-60 26-18 16-26 36-26 60v128h86v-86h426v684h-426v-86h-86v128c0 24 8 44 26 60 16 18 36 26 60 26zM342 362c24 0 44 8 60 26 16 16 24 36 24 60s-8 44-24 60c-16 18-36 26-60 26s-44-8-60-26c-18-16-26-36-26-60s8-44 26-60c16-18 36-26 60-26zM504 426l46-38c6-4 8-8 4-12l-42-74c-2-2-6-4-12-4l-56 22-20-12c-6-6-12-8-18-10l-10-54-6-6c-2-2-4-4-6-4h-86c-2 0-4 2-8 4-2 2-2 4 0 6l-8 54c-6 2-12 4-18 10l-20 12-60-18c-4-2-8 0-14 6l-42 72c0 6 2 10 4 16l48 34v44l-48 34-6 6c0 2 0 4 2 6l42 74c2 4 8 4 14 4l54-22c18 12 30 20 40 22l8 54 6 6c2 2 4 4 6 4h86c4 0 8-2 10-4s2-4 2-6l10-54c6-2 20-10 38-22l56 18c2 2 4 2 6 0l6-6 42-72c0-6-2-8-4-12l-46-34z" />
<glyph unicode="&#xe093;" glyph-name="cs-growth" data-tags="cs-growth" d="M460 122l-72 72-14-2c-126-18-222 10-280 84-56 76-56 164-2 250l16 26 30-2c88-6 160-28 220-68 56-40 80-102 70-184l32-32v108l34 48c-102 152-112 282-18 378 88 90 234 140 438 156l34 4 16-32c74-152 74-286-4-396-74-102-200-154-374-160l-22-30v-320h448v-102h-1012v102h460zM662 482c102 14 172 52 214 110 50 70 54 154 10 260-162-18-274-60-338-124-48-48-48-118 10-214l140 200 84-60zM300 398c-36 24-82 40-136 46-18-40-12-72 12-106 28-36 76-52 148-48 10 56 0 90-24 108z" />
<glyph unicode="&#xe094;" glyph-name="icon-payments" data-tags="icon-payments" d="M102 704v-512h820v512zM0 806h1024v-716h-1024zM26 524v104h922v-104zM152 268v104h310v-104zM764 268v104h108v-104z" />
<glyph unicode="&#xe095;" glyph-name="cs-other" data-tags="cs-other" d="M1024 448c0-282-230-512-512-512s-512 230-512 512c0 282 230 512 512 512s512-230 512-512zM922 448c0 226-184 410-410 410s-410-184-410-410c0-226 184-410 410-410s410 184 410 410zM260 524c44 0 80-34 80-76s-36-76-80-76c-44 0-80 34-80 76s36 76 80 76zM512 524c44 0 80-34 80-76s-36-76-80-76c-44 0-80 34-80 76s36 76 80 76zM764 524c44 0 80-34 80-76s-36-76-80-76c-44 0-80 34-80 76s36 76 80 76z" />
<glyph unicode="&#xe096;" glyph-name="cs-mail-open" data-tags="cs-mail-open" d="M52 526v-538h920v538l-460 368zM0 550l512 410 512-410v-614h-1024zM972 526v-46l-460-268-460 268v46l8 8 452-262 450 262z" />
<glyph unicode="&#xe097;" glyph-name="cs-task" data-tags="cs-task" d="M256 602h308v102h-308zM256 192h154v102h-154zM634 304l-70-76 190-178 276 274-72 72-206-204-118 112M256 396h308v104h-308zM154 806h512v-458l102 100v460h-716v-920h488l-106 102h-280v716" />
<glyph unicode="&#xe098;" glyph-name="cs-rm-comment" data-tags="cs-rm-comment" d="M256 244h-204v664h920v-664h-344l-372-244zM154 806v-460h204v-154l242 154h270v460z" />
<glyph unicode="&#xe099;" glyph-name="cs-tax" data-tags="cs-tax" d="M264 550l10-20 48-82h-220v460h820v-460h-304l-58 102h260v256h-616v-256zM444 756h144v-154h-58zM204 806h104v-50h-104zM204 602h30l28-52h-58zM716 602h104v-52h-104zM716 806h104v-50h-104zM326 192l120 206 60-100-82-144c22-22 36-54 36-90 0-70-56-128-128-128-70 0-128 58-128 128 0 68 54 124 122 128zM390 178c12-6 22-12 30-22-8 10-18 18-30 22zM332 22c24 0 44 18 44 42s-20 42-44 42c-22 0-42-18-42-42s20-42 42-42zM692-64c-72 0-128 58-128 128s56 128 128 128c70 0 128-58 128-128s-58-128-128-128zM692 22c22 0 42 18 42 42s-20 42-42 42c-24 0-44-18-44-42s20-42 44-42zM396 690l288-498c-22-2-40-8-54-16s-26-18-38-32l-236 412z" />
<glyph unicode="&#xe100;" glyph-name="cs-filter-funnel" data-tags="cs-filter-funnel" d="M0 960h1024l-358.4-555.878v-468.122h-307.2v468.122l-358.4 555.878zM563.661 448l283.187 409.6h-669.645l283.597-409.6v-204.8h102.4l0.461 204.8zM460.8 38.4h102.4v102.4h-102.4v-102.4z" />
</font>
</defs>
</svg>
